<?xml version="1.0" standalone="no"?>
<!DOCTYPE svg PUBLIC "-//W3C//DTD SVG 1.1//EN" "http://www.w3.org/Graphics/SVG/1.1/DTD/svg11.dtd" >
<svg xmlns="http://www.w3.org/2000/svg">
<metadata>
This is a custom SVG webfont generated by Font Squirrel.
Designer    : BPG-InfoTech
Foundry     : BPG InfoTech
Foundry URL : http://besariongugushvili.spaces.live.com
</metadata>
<defs>
<font id="webfontkIdfsvQo" horiz-adv-x="500" >
<font-face units-per-em="1000" ascent="720" descent="-280" />
<missing-glyph horiz-adv-x="220" />
<glyph unicode=" "  horiz-adv-x="220" />
<glyph unicode="&#x09;" horiz-adv-x="220" />
<glyph unicode="&#xa0;" horiz-adv-x="220" />
<glyph unicode="!" horiz-adv-x="333" d="M220 571l-44 -395h-19l-43 395q-3 25 -3 39q0 29 16 48t40 19t39.5 -19t15.5 -54zM166 94q22 0 38 -15.5t16 -37.5q0 -23 -16 -38.5t-38 -15.5t-38 15.5t-16 38.5q0 22 16 37.5t38 15.5z" />
<glyph unicode="&#x22;" horiz-adv-x="408" d="M305 392h-24l-26 143l-11 59q-1 8 -1 24q0 59 50 59q21 0 35 -14t14 -38q0 -41 -9 -90zM124 392h-21l-27 145q-11 61 -11 81q0 59 48 59q21 0 35.5 -14.5t14.5 -37.5q0 -21 -13 -89z" />
<glyph unicode="#" d="M97 -13h-41l46 222h-84v40h91l34 167h-125v39h134l45 222h40l-44 -222h164l48 222h40l-46 -222h83v-39h-90l-35 -167h125v-40h-133l-45 -222h-40l45 222h-166zM185 416l-35 -167h166l35 167h-166z" />
<glyph unicode="$" d="M53 25v138h21q6 -67 43 -102.5t109 -42.5v285q-108 67 -147 121q-26 38 -26 90q0 62 46 106t127 53v45h31v-45q40 -1 67 -9q33 -11 94 -34v-146h-19q-6 77 -39.5 113.5t-102.5 42.5v-248q122 -85 158 -127q35 -41 35 -101q0 -66 -51 -119q-51 -51 -142 -58v-63h-31v63 q-87 4 -173 38zM226 413v227q-97 -12 -97 -94q0 -37 22 -67.5t75 -65.5zM257 282v-264q37 8 56 18q59 38 59 104q0 32 -20 61q-20 30 -95 81z" />
<glyph unicode="%" horiz-adv-x="833" d="M636 677h44l-483 -704h-43zM178 677q66 0 102 -55q36 -54 36 -125q0 -82 -40 -129.5t-99 -47.5h-6q-54 0 -95 48q-42 52 -41 129v7q0 72 43 123q42 50 94 50h6zM176 650q-24 0 -44 -29q-19 -28 -19 -123q0 -66 11 -104q7 -27 25 -41q11 -9 26 -9q24 0 40 25q24 37 24 126 q0 93 -24 130q-15 25 -39 25zM657 329h6q52 0 95 -51q40 -49 40 -115v-12q0 -87 -42 -133q-40 -45 -97 -45q-58 0 -99.5 50t-41.5 128v9q0 69 41 119q42 50 92 50h6zM658 303q-24 0 -41 -26q-22 -34 -22 -130q0 -87 23 -122q16 -25 40 -25q22 0 40 27q23 37 23 123 q0 90 -23 128q-16 25 -40 25z" />
<glyph unicode="&#x26;" horiz-adv-x="778" d="M510 408v19h205v-19q-43 -3 -63 -19q-20 -15 -63 -93q-43 -76 -96 -144q77 -92 146 -92q72 0 90 73l19 -14q-37 -134 -152 -134q-80 0 -171 95q-60 -52 -108.5 -73.5t-104.5 -21.5q-82 0 -128 43q-47 44 -47 103t42 117q44 60 160 122q-40 88 -40 146q0 83 62 127 q47 34 109 34q57 0 94 -34t37 -85q0 -50 -36 -91q-33 -38 -125 -85q61 -108 130 -202q86 103 86 173q0 22 -15 40q-10 13 -31 15zM324 414q120 58 120 147q0 35 -21.5 58t-53.5 23q-43 0 -65 -30q-21 -28 -21 -58q0 -46 41 -140zM399 109q-62 85 -89 128q-22 35 -55 101 q-117 -68 -117 -162q0 -52 33 -93q35 -39 91 -39q30 0 59 12q31 15 78 53z" />
<glyph unicode="'" horiz-adv-x="180" d="M99 392h-22l-26 145q-11 63 -11 81q0 59 47 59q22 0 36.5 -14t14.5 -38q0 -21 -13 -89z" />
<glyph unicode="(" horiz-adv-x="333" d="M311 -149v-18q-76 39 -124 87q-70 71 -108 167t-38 200q0 151 74 276q76 125 196 179v-21q-61 -33 -100 -91q-76 -113 -76 -330q0 -107 16 -190q14 -71 31 -109q39 -87 129 -150z" />
<glyph unicode=")" horiz-adv-x="333" d="M22 722v21q74 -37 124 -87q70 -71 108 -167t38 -200q0 -151 -75 -276q-74 -125 -195 -179v18q63 35 99 92q77 113 77 330q0 107 -16 190q-14 70 -31 108q-39 90 -129 150z" />
<glyph unicode="*" d="M241 510q-1 30 -13 67q-17 49 -17 66q0 24 11.5 38t29.5 14q16 0 27 -14t11 -37t-13 -62q-13 -37 -16 -72q26 16 49 42q31 36 47 46.5t35 10.5q16 0 27 -11t11 -26q0 -19 -17 -33q-18 -15 -80 -28q-34 -7 -62 -19q23 -12 62 -20q55 -10 75 -25.5t20 -36.5 q0 -15 -11 -25.5t-25 -10.5q-34 0 -81 56q-19 23 -50 45q2 -32 11 -61q18 -57 18 -78q0 -20 -11 -33.5t-26 -13.5q-18 0 -32 14q-11 11 -11 33t11 57q12 33 15 45q4 15 5 37q-31 -21 -50 -43q-34 -38 -54 -50q-13 -8 -26 -8q-17 0 -28.5 10.5t-11.5 25.5q0 30 40 48 q13 6 60 15q34 9 59 19q-22 12 -63 20q-63 14 -74 23q-22 16 -22 39q0 14 11 25t25 11q16 0 35 -11q20 -12 44 -41q27 -32 55 -48z" />
<glyph unicode="+" horiz-adv-x="564" d="M300 69h-39v244h-243v40h243v242h39v-242h244v-40h-244v-244z" />
<glyph unicode="," horiz-adv-x="250" d="M54 -166v21q49 17 77 51.5t28 74.5q0 10 -4 15q-5 5 -7 5q-6 0 -23 -10q-8 -4 -19 -4q-24 0 -38 14t-14 39q0 24 18 41t45 17q34 0 58 -28.5t24 -74.5q0 -52 -36.5 -94.5t-108.5 -66.5z" />
<glyph unicode="-" horiz-adv-x="333" d="M41 188v73h252v-73h-252z" />
<glyph unicode="." horiz-adv-x="250" d="M125 95q23 0 38.5 -16t15.5 -38q0 -23 -16 -38.5t-38 -15.5t-38 15.5t-16 38.5t16 38.5t38 15.5z" />
<glyph unicode="/" horiz-adv-x="278" d="M241 695h39l-239 -708h-40z" />
<glyph unicode="0" d="M36 327q0 112 33.5 194t91.5 123q44 32 91 32q76 0 137 -78q75 -96 75 -260q0 -116 -33 -197q-31 -76 -81.5 -114t-102.5 -38q-95 0 -158 111q-53 95 -53 227zM132 315q0 -139 34 -223q27 -73 83 -73q29 0 56.5 26t40.5 77q23 86 23 237q0 113 -24 189q-17 56 -45 80 q-19 16 -49 16q-33 0 -59 -30q-34 -40 -48 -128q-12 -86 -12 -171z" />
<glyph unicode="1" d="M125 582l-8 15l161 79h16v-559q0 -55 5 -70q6 -14 21.5 -21t57.5 -8v-18h-249v18q48 2 60 8q15 8 19 19q6 12 6 72v357q0 71 -5 93q-6 30 -34 30q-19 0 -50 -15z" />
<glyph unicode="2" d="M440 128h18l-46 -128h-391v18q171 157 243 257q70 100 70 182q0 63 -39 103q-38 41 -91 41q-50 0 -88.5 -29t-56.5 -83h-18q12 89 62 138t126 49q82 0 135 -52q54 -51 54 -122q0 -49 -23 -100q-38 -81 -118 -168q-123 -135 -152 -160h173q55 0 74 4q45 8 68 50z" />
<glyph unicode="3" d="M67 529l-16 7q58 140 179 140q80 0 122 -52q32 -38 32 -82q0 -74 -91 -150q124 -49 124 -173q0 -86 -55 -148q-70 -82 -206 -82q-61 0 -88 15t-27 37q0 15 11 25t28 10q12 0 24 -3q12 -4 38 -19q28 -15 41 -18q20 -5 38 -5q49 0 87 38q37 38 37 92q0 36 -17 75 q-14 28 -28 42q-23 21 -59.5 36t-73.5 15h-15v15q38 5 77 27q74 44 74 126q0 50 -31 81.5t-79 31.5q-75 0 -126 -81z" />
<glyph unicode="4" d="M376 244h89v-69h-89v-175h-80v175h-280v63l307 438h53v-432zM63 244h233v329z" />
<glyph unicode="5" d="M197 662h237l-38 -83h-199l-44 -89q130 -19 205 -96q65 -67 65 -156q0 -75 -42 -134t-104 -89q-57 -26 -115 -26q-56 0 -85 19t-29 45q0 15 11 25t28 10q20 0 55 -24q37 -25 74 -25q57 0 100 43q44 44 44 105q0 60 -38.5 112t-106.5 81q-51 22 -145 25z" />
<glyph unicode="6" d="M420 676h28v-18q-63 -6 -104 -25t-82 -60q-76 -76 -109 -203q71 48 141 48q68 0 117 -55q50 -55 50 -140q0 -83 -50 -151q-60 -83 -160 -83q-68 0 -115 44q-93 89 -93 227q0 182 137 311q113 105 240 105zM145 334q-9 -66 -9 -106q0 -45 17 -102q16 -54 52 -87 q25 -23 60 -23q45 0 77.5 41.5t32.5 112.5q0 84 -34 145q-33 61 -94 61q-36 0 -102 -42z" />
<glyph unicode="7" d="M37 506l64 156h355v-18l-221 -657h-55l198 596h-182q-56 0 -79 -13q-40 -22 -66 -70z" />
<glyph unicode="8" d="M192 334q-80 65 -102 103t-22 81q0 65 49 111q50 47 133 47q79 0 129 -44q49 -43 49 -99q0 -37 -27 -76q-25 -36 -109 -90q83 -64 113 -105q37 -49 37 -105q0 -69 -53 -119q-52 -49 -139 -49q-94 0 -147 59q-42 46 -42 103q0 45 30 88t101 95zM188 452l81 -66 q57 51 73 83q16 31 16 69q0 52 -28.5 81t-78.5 29q-49 0 -80.5 -28.5t-31.5 -67.5q0 -51 49 -100zM215 315q-80 -65 -80 -161q0 -62 34 -100.5t88 -38.5q52 0 84.5 29t32.5 73q0 35 -19 63q-34 52 -140 135z" />
<glyph unicode="9" d="M81 -13h-28v18q65 2 118 29q54 28 106 100q51 71 71 157q-77 -50 -139 -50q-71 0 -120 54q-49 53 -49 144q0 88 49 155q60 82 157 82q82 0 140 -67q71 -85 71 -206q0 -111 -54 -206.5t-151 -158.5q-80 -51 -171 -51zM355 327q9 63 9 101q0 49 -16 103t-45.5 83.5 t-67.5 29.5q-46 0 -77.5 -40.5t-31.5 -114.5q0 -102 44 -161q32 -42 78 -42q60 0 107 41z" />
<glyph unicode=":" horiz-adv-x="278" d="M141 427q23 0 38.5 -16t15.5 -38q0 -23 -15.5 -38.5t-38.5 -15.5q-22 0 -38 15.5t-16 38.5q0 22 16 38t38 16zM140 95q23 0 39 -16t16 -38q0 -23 -16 -38.5t-39 -15.5q-22 0 -38 15.5t-16 38.5q0 22 16 38t38 16z" />
<glyph unicode=";" horiz-adv-x="278" d="M138 425q22 0 38 -15.5t16 -38.5q0 -22 -16 -38t-38 -16q-23 0 -39 16t-16 38q0 23 16 38.5t39 15.5zM69 -166v21q50 17 78 51.5t28 74.5q0 8 -5 15q-3 5 -6 5q-7 0 -24 -10q-8 -4 -18 -4q-24 0 -38.5 14t-14.5 39q0 24 18.5 41t44.5 17q34 0 58.5 -28.5t24.5 -74.5 q0 -52 -36.5 -94.5t-109.5 -66.5z" />
<glyph unicode="&#x3c;" horiz-adv-x="564" d="M18 321v24l525 228v-43l-452 -196l452 -199v-43z" />
<glyph unicode="=" horiz-adv-x="564" d="M18 391v40h527v-40h-527zM18 232v40h527v-40h-527z" />
<glyph unicode="&#x3e;" horiz-adv-x="564" d="M543 343v-24l-525 -227v42l453 196l-453 198v45z" />
<glyph unicode="?" horiz-adv-x="444" d="M222 156h-20q3 62 15 102q12 41 50 112q30 58 37 85q9 30 9 60q0 61 -32 98t-81 37q-41 0 -66.5 -19t-25.5 -44q0 -18 15 -45q15 -26 15 -40q0 -17 -11.5 -29t-27.5 -12q-22 0 -38 21t-16 55q0 56 47 98q48 42 129 42q100 0 148 -58q35 -44 35 -95q0 -74 -76 -162 q-70 -80 -87 -114q-16 -32 -19 -92zM215 96q23 0 39 -16t16 -39q0 -22 -16.5 -38t-38.5 -16q-23 0 -38.5 16t-15.5 38q0 23 15.5 39t38.5 16z" />
<glyph unicode="@" horiz-adv-x="921" d="M611 457l76 11l-57 -195q-25 -86 -38 -139q-7 -27 -7 -46q0 -16 10.5 -26.5t26.5 -10.5q35 0 85 35q50 36 86 116t36 167v10q0 120 -90 205.5t-216 85.5h-11q-112 0 -210 -60q-96 -60 -153 -173q-56 -114 -56 -233q0 -113 49 -204q49 -90 138 -138t196 -48q130 0 233 70 t159 200h28q-44 -135 -159 -217q-116 -83 -264 -83q-116 0 -216 55q-100 56 -155 156t-55 222q0 129 60 240q62 113 170 175q109 63 232 63q101 0 182 -42q82 -42 124 -123q43 -79 43 -170q0 -90 -40 -177q-38 -84 -99 -126t-131 -42q-36 0 -55 18t-19 49q0 26 8 72 q-72 -87 -116 -113t-76 -26q-36 0 -62 32t-26 82q0 70 46 158t122 143q56 41 101 41q67 0 84 -67zM516 448q-36 0 -74 -39q-54 -54 -94 -152q-29 -72 -29 -114q0 -29 17 -49t39 -20q27 0 59 21q32 23 66 66q33 43 50 90q27 78 27 127q0 32 -17 51t-44 19z" />
<glyph unicode="A" horiz-adv-x="722" d="M498 127l-40 95h-257l-45 -105q-16 -36 -16 -57q0 -36 76 -42v-18h-208v18q39 7 54 19q23 23 55 96l233 544h17l230 -550q29 -69 50 -87q22 -19 64 -22v-18h-261v18q67 4 67 41q0 23 -19 68zM216 258h228l-112 268z" />
<glyph unicode="B" horiz-adv-x="667" d="M462 338q68 -15 103 -47q47 -45 47 -110q0 -50 -31 -94q-32 -46 -86 -66q-54 -21 -166 -21h-312v18h25q41 0 59 27q11 17 11 72v428q0 61 -14 78q-20 21 -56 21h-25v18h286q78 0 128 -11q72 -18 111.5 -62t39.5 -103q0 -51 -31 -90.5t-89 -57.5zM206 619v-255 q36 -6 92 -6q72 0 107 15t54.5 46.5t19.5 69.5q0 62 -48.5 101.5t-136.5 39.5q-47 0 -88 -11zM206 320v-272q55 -13 112 -13q85 0 133 38.5t48 99.5q0 65 -52.5 108t-154.5 43q-63 0 -86 -4z" />
<glyph unicode="C" horiz-adv-x="667" d="M585 677h17l15 -225h-15q-56 190 -221 190q-105 0 -169.5 -81t-64.5 -241v-11q0 -126 66 -203q67 -78 177 -78h5q63 0 113 27q52 30 109 110l15 -9q-48 -89 -114.5 -130t-159.5 -41q-164 0 -254 122q-68 92 -68 214v8q0 93 44 173q45 83 124 130q73 45 158 45h11 q70 0 142 -35q19 -10 29 -10q12 0 23 9q13 13 18 36z" />
<glyph unicode="D" horiz-adv-x="722" d="M313 0h-296v18h25q42 0 60 27q10 16 10 72v428q0 62 -13 78q-19 21 -57 21h-25v18h270q150 0 225 -34q79 -33 125.5 -112t46.5 -181q0 -138 -84 -231q-95 -104 -287 -104zM206 611v-563q64 -14 104 -14q113 0 188 80t75 216t-75 216q-75 79 -192 79q-42 0 -100 -14z" />
<glyph unicode="E" horiz-adv-x="611" d="M391 626h-182v-262h145q56 0 76 18q27 23 28 79h19v-231h-19q-6 49 -13 62q-19 37 -91 37h-145v-218q0 -45 4 -54q9 -21 51 -21h112q54 0 81 8q25 8 49 31q30 29 62 91h20l-57 -166h-510v18h23q23 0 44 12q16 7 21.5 23.5t5.5 63.5v430q0 63 -12 78q-18 19 -59 19h-23v18 h510l7 -145h-19q-11 55 -23 72q-12 20 -37 30q-18 7 -68 7z" />
<glyph unicode="F" horiz-adv-x="556" d="M351 626h-146v-260h120q43 0 61.5 19t25.5 72h18v-224h-18q-4 54 -21 71.5t-66 20.5h-120v-208q0 -49 6 -66q4 -12 20 -21q23 -12 45 -12h24v-18h-284v18h24q41 0 59 24q12 16 12 75v428q0 52 -7 67q-5 13 -20 21q-22 11 -44 11h-24v18h493l6 -145h-17q-24 69 -48 88 t-99 21z" />
<glyph unicode="G" horiz-adv-x="722" d="M596 677h18l17 -208h-17q-25 77 -67 117q-59 57 -152 57q-126 0 -192 -100q-56 -85 -56 -201q0 -96 37 -173q35 -75 93.5 -113t124.5 -38q71 0 137 37v191q0 49 -8 65q-9 17 -25.5 24.5t-53.5 7.5v19h256v-19h-12q-39 0 -52 -25q-10 -17 -10 -72v-202q-108 -59 -233 -59 q-192 0 -291 123q-75 92 -75 213q0 87 42 168q50 95 137 146q74 42 172 42q36 0 65 -6q25 -4 84 -25q28 -11 37 -11q20 0 24 42z" />
<glyph unicode="H" horiz-adv-x="722" d="M206 545v-190h307v190q0 51 -6 67q-5 12 -21 21q-22 11 -44 11h-24v18h284v-18h-24q-22 0 -44 -11q-16 -7 -22 -24q-5 -17 -5 -64v-428q0 -49 6 -66q4 -12 20 -21q23 -12 45 -12h24v-18h-284v18h24q40 0 59 24q12 16 12 75v202h-307v-202q0 -49 6 -66q4 -12 20 -21 q21 -12 45 -12h24v-18h-284v18h24q41 0 59 24q12 16 12 75v428q0 52 -7 67q-5 13 -20 21q-22 11 -44 11h-24v18h284v-18h-24q-23 0 -45 -11q-15 -7 -21 -24q-5 -17 -5 -64z" />
<glyph unicode="I" horiz-adv-x="333" d="M285 18h24v-18h-284v18h23q40 0 60 24q12 16 12 75v428q0 52 -7 67q-4 12 -20 21q-22 11 -45 11h-23v18h284v-18h-24q-41 0 -59 -24q-13 -14 -13 -75v-428q0 -51 7 -66q4 -12 20 -21q21 -12 45 -12z" />
<glyph unicode="J" horiz-adv-x="389" d="M124 644h-24v18h283v-18h-24q-39 0 -59 -24q-11 -16 -11 -75v-324q0 -73 -17 -121q-17 -49 -58 -82t-95 -33q-44 0 -71 22t-27 53q0 24 12 36q17 15 37 15q18 0 30.5 -11.5t29.5 -53.5q11 -26 29 -26q15 0 25.5 17.5t10.5 55.5v452q0 52 -7 67q-5 13 -20 21 q-22 11 -44 11z" />
<glyph unicode="K" horiz-adv-x="722" d="M400 468l-101 -101l244 -242q57 -57 99.5 -80.5t87.5 -26.5v-18h-314v18q26 0 39.5 9t13.5 22q0 12 -5.5 21.5t-29.5 34.5l-229 226v-214q0 -49 6 -66q5 -12 21 -21q21 -12 44 -12h23v-18h-282v18h23q40 0 60 24q11 17 11 75v428q0 51 -6 67q-4 12 -20 21q-24 11 -45 11 h-23v18h282v-18h-23q-22 0 -44 -11q-15 -7 -21 -24q-6 -15 -6 -64v-202l67 62q144 131 175 177q13 19 13 34q0 28 -44 28h-16v18h244v-18q-35 -2 -62.5 -15t-82.5 -61z" />
<glyph unicode="L" horiz-adv-x="611" d="M573 183l16 -3l-56 -180h-513v18h25q42 0 60 28q10 14 10 72v427q0 62 -13 78q-20 21 -57 21h-25v18h300v-18h-8q-45 0 -66 -10q-22 -11 -29 -26q-8 -16 -8 -74v-416q0 -40 8 -56q6 -10 18 -15q13 -5 76 -5h48q76 0 107 11q33 13 58 42.5t49 87.5z" />
<glyph unicode="M" horiz-adv-x="889" d="M425 0h-16l-256 557v-442q0 -60 14 -76q18 -21 57 -21h23v-18h-230v18h23q42 0 60 26q10 14 10 71v433q0 44 -9 63q-16 33 -84 33v18h187l240 -518l237 518h187v-18h-23q-42 0 -60 -25q-11 -17 -11 -71v-433q0 -60 14 -76q18 -21 57 -21h23v-18h-281v18h23q43 0 60 26 q11 16 11 71v442z" />
<glyph unicode="N" horiz-adv-x="722" d="M-13 644v18h180l404 -496v382q0 62 -13 76q-18 20 -58 20h-22v18h230v-18h-23q-42 0 -60 -25q-11 -17 -11 -71v-559h-17l-437 534v-408q0 -62 13 -76q19 -21 57 -21h24v-18h-231v18h23q43 0 60 26q11 16 11 71v460q-28 34 -44 45q-14 11 -43 20q-12 4 -43 4z" />
<glyph unicode="O" horiz-adv-x="722" d="M366 677q128 0 223 -98t95 -244q0 -151 -96 -251q-94 -99 -230 -99q-137 0 -230 97q-93 98 -93 252q0 156 108 257q94 86 223 86zM356 642q-88 0 -142 -66q-67 -82 -67 -240q0 -162 69 -250q54 -66 141 -66q93 0 154 72q61 73 61 230q0 171 -67 253q-54 67 -149 67z" />
<glyph unicode="P" horiz-adv-x="556" d="M205 310v-193q0 -61 14 -77q18 -22 56 -22h25v-18h-283v18h25q41 0 60 28q9 15 9 71v428q0 64 -13 78q-20 21 -56 21h-25v18h242q89 0 140 -18q54 -19 88 -63t34 -102q0 -83 -54 -132.5t-151 -49.5q-49 0 -111 13zM205 614v-276q50 -10 80 -10q51 0 88 39q37 40 37 102v6 q0 63 -39 106q-38 42 -94 42h-8q-25 0 -64 -9z" />
<glyph unicode="Q" horiz-adv-x="722" d="M440 -7q50 -85 107.5 -126t132.5 -47v-16q-99 1 -216.5 56.5t-191.5 132.5q-70 29 -111 60q-126 99 -126 280q0 149 96 246q98 98 233 98q130 0 225 -98t95 -248q0 -122 -68 -214q-67 -91 -176 -124zM358 640q-88 0 -143 -64q-68 -80 -68 -243q0 -161 69 -248 q54 -67 142 -67q93 0 148 67q66 79 66 234q0 118 -36 199q-54 122 -178 122z" />
<glyph unicode="R" horiz-adv-x="667" d="M676 18v-18h-177l-224 310q-17 -1 -41 -1q-19 0 -28 1v-193q0 -63 13 -77q19 -22 56 -22h26v-18h-284v18h25q42 0 60 28q10 14 10 71v428q0 64 -13 78q-19 21 -57 21h-25v18h241q106 0 156 -15q52 -16 86 -58t34 -97q0 -63 -41 -107t-122 -62l136 -190q46 -65 81 -88 q35 -21 88 -27zM206 616v-275q7 0 16 -0.5t11 -0.5q92 0 141.5 40t49.5 106q0 62 -39 100.5t-103 38.5q-28 0 -76 -9z" />
<glyph unicode="S" horiz-adv-x="556" d="M440 677h18v-229h-18q-7 64 -31 105q-23 39 -64.5 62t-87.5 23q-50 0 -84 -31q-33 -31 -33 -70q0 -29 21 -55q29 -36 144 -98q89 -48 127 -77q70 -54 70 -138q0 -75 -58 -130q-58 -54 -150 -54q-31 0 -54 4q-15 3 -63 18q-47 16 -60 16t-20 -8t-10 -30h-18v227h18 q14 -73 34 -107q22 -36 66.5 -59t96.5 -23q59 0 95.5 31.5t36.5 77.5q0 55 -56 95q-24 19 -104 62q-86 48 -121 76q-73 61 -73 138q0 71 55 122q55 52 139 52q55 0 112 -25q27 -13 39 -13q26 0 33 38z" />
<glyph unicode="T" horiz-adv-x="611" d="M38 662h541l7 -155h-19q-4 40 -14 59q-30 55 -107 55h-93v-506q0 -62 13 -76q20 -21 57 -21h23v-18h-280v18h23q42 0 60 26q10 14 10 71v506h-79q-48 0 -66 -7q-59 -20 -65 -107h-19z" />
<glyph unicode="U" horiz-adv-x="722" d="M502 644h-25v18h234v-18h-24q-40 0 -61 -32q-10 -16 -10 -71v-268q0 -98 -20 -155q-20 -59 -80 -96t-155 -37q-103 0 -160.5 35.5t-83.5 102.5q-15 43 -15 163v259q0 59 -16 79t-56 20h-25v18h287v-18h-26q-41 0 -58 -26q-13 -16 -13 -73v-288q0 -43 7 -89q8 -51 26 -78 q44 -63 139 -63q66 0 116 28q52 28 70 72q19 44 19 150v268q0 62 -13 78q-19 21 -57 21z" />
<glyph unicode="V" horiz-adv-x="722" d="M506 662h204v-18q-36 -6 -53 -22q-27 -26 -46 -73l-231 -564h-18l-248 571q-20 44 -27 54q-24 30 -78 34v18h270v-18q-43 -4 -58 -14.5t-15 -29.5q0 -24 23 -76l168 -389l156 384q23 57 23 78q0 35 -62 46l-8 1v18z" />
<glyph unicode="W" horiz-adv-x="944" d="M738 662h198v-18q-27 0 -42.5 -9t-30.5 -35q-9 -16 -30 -81l-185 -534h-20l-150 423l-150 -423h-18l-197 550q-23 63 -28 73q-18 36 -72 36v18h245v-18h-11q-26 0 -40 -11t-14 -29t22 -78l130 -372l110 316l-19 56l-16 44q-12 27 -23 43q-6 9 -16 16q-12 7 -24 12 q-9 3 -29 3v18h257v-18h-17q-53 0 -53 -43q0 -27 22 -87l127 -360l126 365q22 59 22 84q0 11 -7.5 21t-17.5 13q-18 7 -49 7v18z" />
<glyph unicode="X" horiz-adv-x="722" d="M540 535l-132 -168l142 -212q57 -87 88 -111q29 -23 72 -26v-18h-284v18q28 2 42 6q24 11 24 32q0 10 -5 22q-3 8 -27 43l-112 170l-139 -177q-30 -40 -30 -58q0 -34 63 -38v-18h-235v18q23 3 43 11q60 23 120 100l157 197l-131 191q-53 77 -90 101q-36 24 -85 26v18h306 v-18q-68 -1 -68 -37q0 -18 23 -53l102 -152l117 149q30 37 30 56q0 11 -6 18q-7 11 -19 15t-46 4v18h235v-18q-29 -2 -45 -9q-26 -11 -48 -30q-21 -18 -62 -70z" />
<glyph unicode="Y" horiz-adv-x="722" d="M477 644v18h231v-18h-13q-11 0 -38 -11q-25 -12 -44.5 -33t-48.5 -68l-160 -251v-166q0 -60 14 -76q20 -21 59 -21h21v-18h-281v18h23q42 0 60 26q11 16 11 71v157l-182 277q-30 47 -44 61q-11 12 -47 29q-12 5 -29 5v18h283v-18h-14q-25 0 -43.5 -11t-18.5 -32 q0 -17 30 -63l138 -214l130 205q29 46 29 68q0 47 -66 47z" />
<glyph unicode="Z" horiz-adv-x="611" d="M85 662h490l-435 -622h272q62 0 95 27q35 29 60 111l16 -2l-31 -176h-539v18l424 605h-211q-53 0 -77 -12q-24 -11 -36 -33q-13 -24 -23 -81h-18z" />
<glyph unicode="[" horiz-adv-x="333" d="M297 -160v-38h-215v875h215v-38h-142v-799h142z" />
<glyph unicode="\" horiz-adv-x="278" d="M1 695h40l239 -708h-39z" />
<glyph unicode="]" horiz-adv-x="333" d="M37 639v38h214v-875h-214v38h141v799h-141z" />
<glyph unicode="^" horiz-adv-x="469" d="M229 676h14l208 -350h-45l-171 286l-171 -286h-46z" />
<glyph unicode="_" d="M509 -175v-41h-517v41h517z" />
<glyph unicode="`" horiz-adv-x="333" d="M201 510l-143 169h109l51 -169h-17z" />
<glyph unicode="a" horiz-adv-x="444" d="M285 65q-70 -55 -87 -62q-26 -12 -56 -12q-46 0 -76 32t-30 83q0 32 14 57q20 34 69 62q48 29 166 72v17q0 64 -20.5 90.5t-62.5 26.5q-30 0 -49 -17q-19 -16 -19 -38l1 -28q0 -23 -11 -35t-30 -12q-18 0 -29.5 13t-11.5 34q0 43 43 77q44 36 120 36q60 0 98 -20 q28 -15 42 -48q9 -21 9 -86v-151q0 -59 2 -79q5 -24 22 -24q7 0 13 3q14 10 40 36v-27q-56 -74 -105 -74q-52 0 -52 74zM285 96v171q-73 -29 -96 -42q-71 -39 -71 -96q0 -34 20.5 -57.5t48.5 -23.5q37 0 98 48z" />
<glyph unicode="b" d="M154 695v-325q64 91 140 91q69 0 120 -59q51 -58 51 -161q0 -119 -79 -192q-68 -62 -151 -62q-77 0 -162 56v464q0 78 -4 93q-5 31 -30 31q-13 0 -35 -8l-6 17l134 55h22zM154 339v-267q50 -50 106 -50q45 0 82 49q39 49 39 142q0 85 -39 132q-37 46 -87 46 q-26 0 -51 -13q-21 -11 -50 -39z" />
<glyph unicode="c" horiz-adv-x="444" d="M397 177l14 -7q-18 -85 -69.5 -134t-117.5 -49q-77 0 -134 63q-56 65 -56 173q0 106 63 172t151 66q64 0 107 -35q43 -34 43 -73q0 -18 -12 -29.5t-33 -11.5q-29 0 -43 18q-9 10 -12 39q-1 28 -19 44q-17 15 -48 15q-48 0 -78 -36q-40 -47 -40 -127q0 -79 39 -141 q40 -61 107 -61q48 0 86 32q26 21 52 82z" />
<glyph unicode="d" d="M347 -13v64q-60 -64 -131 -64q-73 0 -128 61t-55 157q0 97 60 176q62 80 157 80q60 0 97 -37v82q0 79 -4 94q-5 31 -31 31q-11 0 -33 -8l-7 17l134 55h22v-518q0 -78 3 -96q7 -30 31 -30q11 0 35 8l5 -17l-132 -55h-23zM347 85v230q-2 49 -35 83q-30 33 -64 33h-4 q-42 0 -77 -39q-44 -50 -44 -148q0 -100 42 -152q43 -52 96 -52q45 0 86 45z" />
<glyph unicode="e" horiz-adv-x="444" d="M416 279h-310q0 -101 49 -156q49 -57 115 -57q91 0 130 107l16 -10q-10 -66 -60 -122q-50 -54 -124 -54q-79 0 -138 62q-57 63 -57 169q0 114 59 179q58 64 148 64q75 0 123 -50q49 -49 49 -132zM106 307h207q-1 40 -10 61q-12 27 -36 43t-51 16q-41 0 -72.5 -32.5 t-37.5 -87.5z" />
<glyph unicode="f" horiz-adv-x="333" d="M321 412h-115v-294q0 -62 14 -79q18 -21 48 -21h41v-18h-267v18h20q18 0 35 9q16 10 22 27q6 16 6 64v294h-86v36h86v29v10q0 89 49 145q52 60 138 62q51 0 94 -34q29 -23 29 -49q0 -15 -13 -27.5t-27 -12.5q-11 0 -25 8q-11 7 -30 34q-18 27 -33 36t-34 9q-21 0 -38 -12 q-14 -10 -22 -37q-7 -24 -7 -129v-32h115v-36z" />
<glyph unicode="g" d="M151 163q-85 42 -85 136q0 66 50 114t128 48q64 0 111 -32h95q28 0 29 -5q3 -4 3 -16t-3 -17q-1 -6 -29 -6h-58q27 -35 27 -89q0 -63 -48 -108q-49 -44 -128 -44q-35 0 -68 10q-37 -32 -37 -56q0 -22 40 -27q26 -3 68 -4q95 -1 130 -7q46 -6 73 -33.5t27 -67.5 q0 -55 -52 -103q-76 -72 -198 -72q-96 0 -160 43q-36 24 -36 51q0 10 5 23q7 16 34 50l7 7l18 20l25 26q-46 28 -46 54q0 40 78 105zM236 437q-38 0 -61.5 -29.5t-23.5 -87.5q0 -76 33 -120q26 -32 65 -32q38 0 61 29t23 86q0 79 -33 122q-26 32 -64 32zM146 0 q-46 -49 -46 -86q0 -23 28 -41q50 -30 141 -30q89 0 129 31q42 32 42 66q0 26 -24 36q-28 12 -101 13q-106 3 -169 11z" />
<glyph unicode="h" d="M140 695h23v-328q55 61 85 77q32 17 64 17q81 0 106 -87q9 -32 9 -114v-159q0 -43 7 -58q6 -13 18 -19t42 -6v-18h-220v18h10q29 0 42 9t19 28q1 5 1 46v159q0 72 -8 96q-13 46 -64 46t-111 -64v-237q0 -45 5 -57q12 -26 67 -26v-18h-222v18q31 0 47 9q22 12 22 74v405 q0 79 -4 94q-6 31 -32 31q-9 0 -33 -8l-7 17z" />
<glyph unicode="i" horiz-adv-x="278" d="M145 695q21 0 35 -14.5t14 -35.5t-14 -35.5t-35 -14.5q-20 0 -35 15t-15 35q0 21 14.5 35.5t35.5 14.5zM164 461h22v-360q0 -43 6 -56q6 -15 18.5 -21t42.5 -6v-18h-217v18q34 0 44 6q24 14 24 77v173q0 74 -4 94q-5 28 -31 28q-12 0 -33 -8l-7 18z" />
<glyph unicode="j" horiz-adv-x="278" d="M145 695q21 0 35.5 -14.5t14.5 -35.5t-14.5 -35.5t-35.5 -14.5t-35.5 14.5t-14.5 35.5t14.5 35.5t35.5 14.5zM166 461h21v-451q0 -111 -47.5 -168.5t-128.5 -57.5q-42 0 -65 15.5t-23 34.5q0 17 12 29t28 12q13 0 26 -6q11 -6 32 -25q24 -21 40 -21q13 0 23 9 q12 10 16 31q6 21 6 91v319q0 75 -4 94q-6 29 -31 29q-12 0 -33 -8l-7 18z" />
<glyph unicode="k" d="M141 695h23v-446l113 104q36 33 42 42q4 5 4 12q0 24 -34 25v16h194v-16q-39 -1 -65.5 -12t-59.5 -40l-115 -106l115 -145q52 -65 64 -77q21 -20 41 -29q15 -5 43 -5v-18h-217v18q31 0 31 20q0 11 -19 36l-137 175v-148q0 -45 6 -58q7 -14 18.5 -19.5t47.5 -5.5v-18h-228 v18q33 0 52 8q10 4 15 17q8 18 8 55v408q0 79 -4 94q-5 31 -32 31q-9 0 -30 -8l-9 17z" />
<glyph unicode="l" horiz-adv-x="278" d="M163 695h22v-594q0 -43 6 -56q13 -27 66 -27v-18h-219v18q32 0 42 6q24 14 24 77v407q0 77 -4 92q-5 31 -30 31q-11 0 -32 -8l-8 17z" />
<glyph unicode="m" horiz-adv-x="778" d="M164 461v-96q52 52 58 57q47 39 97 39q43 0 73 -25t40 -71q49 58 85 77q34 19 71 19q77 0 107 -78q11 -30 11 -89v-193q0 -42 6 -57q12 -26 61 -26v-18h-220v18h9q28 0 45 11q11 8 16 25q2 10 2 47v193q0 55 -13 77q-19 31 -61 31q-51 0 -115 -61l-1 -5l1 -21v-214 q0 -45 5 -57q12 -26 67 -26v-18h-226v18q35 0 50 8t21 27q2 10 2 48v193q0 55 -16 78q-23 32 -60 32q-27 0 -52 -15q-41 -21 -63 -48v-240q0 -43 6 -57q7 -14 20 -20t47 -6v-18h-221v18q30 0 42 6q14 7 19.5 22.5t5.5 54.5v171q0 76 -4 95q-5 29 -31 29q-11 0 -32 -8l-8 18 l135 55h21z" />
<glyph unicode="n" d="M162 461v-95q78 95 150 95q75 0 105 -79q10 -27 10 -90v-191q0 -43 7 -57q6 -14 18.5 -20t43.5 -6v-18h-222v18h10q29 0 42 9t19 28q2 10 2 46v183q0 62 -16 89.5t-54 27.5q-58 0 -115 -64v-236q0 -44 5 -56q7 -15 20 -21t47 -6v-18h-221v18h10q34 0 46 17t12 66v166 q0 83 -4 98q-5 31 -31 31q-12 0 -33 -8l-7 18l135 55h21z" />
<glyph unicode="o" d="M250 461q101 0 163 -77q52 -65 52 -152q0 -59 -29 -122q-27 -60 -77.5 -91.5t-113.5 -31.5q-101 0 -161 80q-50 68 -50 152q0 61 30 123q30 59 79 89t107 30zM235 429q-46 0 -78 -41t-32 -128q0 -97 38 -168q39 -71 103 -71q109 0 109 174q0 120 -52 187q-35 47 -88 47z " />
<glyph unicode="p" d="M5 387l-6 16l138 56h18v-105q64 107 143 107q68 0 113 -53q55 -64 55 -168q0 -117 -67 -191q-54 -62 -137 -62q-37 0 -63 10q-20 8 -44 29v-136q0 -46 6 -58q13 -28 70 -28v-18h-234v18h12q26 0 46 11q9 5 14 17q5 13 5 61v423q0 44 -4 55q-7 23 -35 23q-13 0 -30 -7z M155 325v-167q0 -53 5 -71q7 -29 34.5 -50t65.5 -21q49 0 79 38q40 49 40 140q0 102 -45 158q-32 38 -74 38q-24 0 -47 -12q-18 -10 -58 -53z" />
<glyph unicode="q" d="M411 461h16v-576q0 -42 6 -54q7 -14 20.5 -20.5t46.5 -6.5v-18h-226v18h10q27 0 41 8q22 14 22 73v193q-44 -52 -77 -71.5t-70 -19.5q-65 0 -116 59q-51 58 -51 158q0 115 67 185q68 72 163 72q56 0 93 -32q29 14 55 32zM347 109v210q0 37 -10 57q-9 22 -34 36.5 t-55 14.5q-58 0 -95.5 -48.5t-37.5 -139.5q0 -87 38.5 -135.5t97.5 -48.5q56 0 96 54z" />
<glyph unicode="r" horiz-adv-x="333" d="M142 461h20v-101q56 101 115 101q26 0 44 -16.5t18 -38.5q0 -19 -12.5 -32t-30.5 -13q-16 0 -38 17t-31 17t-19 -10q-22 -19 -46 -66v-214q0 -37 9 -56q15 -31 69 -31v-18h-229v18q34 0 51 11q13 8 17 24q3 9 3 48v173q0 80 -4 93q-6 29 -33 29q-13 0 -34 -8l-5 18z" />
<glyph unicode="s" horiz-adv-x="389" d="M304 461h16v-153h-16q-17 70 -45.5 97t-75.5 27q-34 0 -55.5 -17.5t-21.5 -40.5q0 -28 16 -47q16 -21 62 -43l71 -34q99 -50 99 -128q0 -61 -46 -98t-103 -37q-40 0 -94 14q-18 5 -27 5q-11 0 -17 -13h-16v160h16q14 -66 51.5 -102t87.5 -36q33 0 54.5 20t21.5 48 q0 33 -24 56q-26 24 -95 58q-69 35 -92 64q-22 28 -22 70q0 55 38.5 92.5t97.5 37.5q27 0 64 -12q22 -7 33 -7q8 0 12 3.5t10 15.5z" />
<glyph unicode="t" horiz-adv-x="278" d="M146 594h15v-146h105v-35h-105v-290q0 -73 45 -73q37 0 54 39h19q-17 -46 -47.5 -71t-64.5 -25q-43 4 -66 29q-20 23 -20 77v14v300h-71v16q61 25 105 98q14 24 31 67z" />
<glyph unicode="u" d="M271 448h152v-271q0 -80 4 -96q7 -30 31 -30q13 0 34 8l7 -17l-134 -55h-22v94q-59 -62 -88 -78t-64 -16q-37 0 -66 21q-27 22 -37.5 56t-10.5 97v200q-4 45 -15.5 56t-60.5 12v19h157v-300q0 -58 19.5 -79.5t54.5 -21.5q48 0 111 63v254q0 39 -14 51.5t-58 13.5v19z" />
<glyph unicode="v" d="M8 429v19h211v-19h-14q-39 0 -39 -34q0 -19 10 -40l104 -247l105 256q11 28 11 42q0 7 -4 11q-9 12 -47 12v19h146v-19q-25 -1 -35 -10q-17 -13 -31 -49l-159 -383h-20l-160 377q-15 41 -45 57q-9 5 -33 8z" />
<glyph unicode="w" horiz-adv-x="722" d="M6 429v19h188v-19q-25 -2 -33.5 -8.5t-8.5 -21.5q0 -14 8 -36l96 -258l96 210l-25 66q-13 30 -31 40q-9 6 -40 8v19h213v-19q-35 -2 -50 -12q-10 -7 -10 -25q0 -11 4 -20l102 -257l94 248q10 24 10 42q0 23 -47 24v19h141v-19q-43 -6 -63 -57l-149 -385h-20l-112 285 l-130 -285h-18l-144 376q-14 35 -27.5 47.5t-43.5 18.5z" />
<glyph unicode="x" d="M13 429v19h211v-19q-37 0 -37 -24q0 -11 18 -37l16 -24l31 -51l37 51q35 49 35 61q0 24 -35 24v19h151v-19q-24 -2 -41 -13q-24 -16 -66 -72l-61 -82l112 -160q40 -58 58 -71q17 -11 46 -13v-18h-211v18q23 0 34 10q9 6 9 18t-31 56l-65 96l-72 -96q-33 -44 -33 -52 q0 -13 11.5 -22t32.5 -10v-18h-146v18q17 2 30 12q19 14 63 72l94 125l-85 123q-36 52 -56 66q-19 13 -50 13z" />
<glyph unicode="y" d="M6 429v19h208v-19h-10q-44 0 -44 -33q0 -20 16 -52l109 -226l100 247q9 19 9 40q0 9 -4 13q-8 11 -41 11v19h145v-19q-18 -2 -27.5 -7.5t-21.5 -21.5q-7 -12 -17 -38l-182 -446q-25 -62 -67.5 -97t-83.5 -35q-28 0 -47 16.5t-19 38.5q0 21 13.5 33.5t36.5 12.5 q14 0 44 -11q21 -8 24 -8q37 0 67 74l32 78l-161 337q-10 21 -23 38q-12 17 -20 23q-12 9 -36 13z" />
<glyph unicode="z" horiz-adv-x="444" d="M403 137h17l-5 -137h-395v18l297 395h-147q-47 0 -62 -6q-13 -6 -24 -23q-14 -24 -15 -61h-19l3 125h375v-19l-300 -396h163q49 0 68 8t31 31q9 17 13 65z" />
<glyph unicode="{" horiz-adv-x="480" d="M411 -198v-18q-82 12 -133 67t-51 121q0 33 11 82q12 46 12 73q0 37 -31 66.5t-81 36.5v20q50 7 81 36.5t31 66.5q0 25 -12 72q-11 49 -11 82q0 65 51 121q52 57 133 67v-18q-55 -12 -83 -42.5t-28 -69.5q0 -27 11 -76t11 -81q0 -51 -37.5 -97t-106.5 -70 q69 -25 106.5 -72t37.5 -98q0 -31 -11 -80t-11 -76q0 -39 28 -69t83 -44z" />
<glyph unicode="|" horiz-adv-x="200" d="M79 695h40v-911h-40v911z" />
<glyph unicode="}" horiz-adv-x="480" d="M86 677v18q82 -10 133 -66q51 -55 51 -122q0 -33 -11 -82t-11 -72q0 -37 30.5 -66.5t80.5 -36.5v-20q-50 -7 -80.5 -36.5t-30.5 -66.5q0 -24 11 -73t11 -82q0 -66 -51 -121t-133 -67v18q56 14 83.5 43.5t27.5 69.5q0 29 -12 76q-11 49 -11 80q0 51 37.5 97t107.5 71 q-68 24 -106.5 71t-38.5 98q0 32 11 81q12 47 12 76q0 39 -28 69.5t-83 42.5z" />
<glyph unicode="~" horiz-adv-x="541" d="M509 330h22q-2 -62 -36 -98.5t-84 -36.5q-24 0 -48 7q-18 5 -134 52q-74 31 -107 31q-73 0 -91 -89h-21q3 63 35 99t79 36q23 0 44 -7q47 -12 133 -50q84 -35 117 -35q37 0 61.5 23.5t29.5 67.5z" />
<glyph unicode="&#xa9;" horiz-adv-x="760" d="M380 677q88 0 170 -45q83 -44 130 -127t47 -174t-46 -173q-46 -81 -129 -128q-82 -45 -172 -45t-173 45q-82 46 -128 128q-45 82 -45 173q0 92 46 174q47 83 130 127q82 45 170 45zM380 648q-79 0 -156 -41q-74 -40 -118 -117q-42 -76 -42 -159q0 -81 41 -157 q42 -75 117 -117q76 -42 158 -42t157 42q77 42 117 117q42 75 42 157q0 83 -43 159q-42 77 -118 117q-76 41 -155 41zM532 554h19l10 -137h-19q-36 115 -148 115q-77 0 -123 -61q-34 -50 -34 -128q0 -101 43 -151.5t119 -50.5q95 0 152 79l18 -9q-67 -99 -187 -99 q-98 0 -162 63t-64 153q0 94 68 160q69 66 175 66q23 0 38 -3q16 -2 53 -15q11 -4 18 -4q15 0 24 22z" />
<glyph unicode="&#xab;" d="M129 227l119 -231h-28l-189 231l189 229h28zM350 227l119 -231h-29l-192 231l192 229h29z" />
<glyph unicode="&#xad;" horiz-adv-x="333" d="M41 188v73h252v-73h-252z" />
<glyph unicode="&#xae;" horiz-adv-x="760" d="M380 677q88 0 170 -45q83 -44 130 -127t47 -174t-46 -173q-46 -81 -129 -128q-82 -45 -172 -45t-173 45q-82 46 -128 128q-45 82 -45 173q0 92 46 174q47 83 130 127q82 45 170 45zM380 648q-79 0 -156 -41q-74 -40 -118 -117q-42 -76 -42 -159q0 -81 41 -157 q42 -75 117 -117q76 -42 158 -42t157 42q77 42 117 117q42 75 42 157q0 83 -43 159q-42 77 -118 117q-76 41 -155 41zM188 527v17h189q69 0 107 -31t38 -78q0 -80 -108 -109l102 -145q18 -25 33 -36q8 -5 26 -7v-16h-90l-144 198h-37v-151q3 -17 15 -24t43 -7v-16h-179v16 q40 0 47 22q3 8 3 45v256q0 38 -1 42q-6 24 -44 24zM304 515v-174q57 0 84 11q55 23 55 77q0 40 -28 67t-70 27q-17 0 -41 -8z" />
<glyph unicode="&#xb4;" horiz-adv-x="333" d="M167 679h109l-144 -169h-17z" />
<glyph unicode="&#xbb;" d="M371 226l-119 230h28l189 -230l-189 -230h-28zM150 226l-119 230h29l192 -230l-192 -230h-29z" />
<glyph unicode="&#x2c6;" horiz-adv-x="469" d="M229 676h14l208 -350h-45l-171 286l-171 -286h-46z" />
<glyph unicode="&#x2da;" horiz-adv-x="376" d="M134 625q0 -21 20 -40q18 -17 40 -17h5h5q22 0 39 16q19 18 19 40q0 21 -19 37.5t-44 16.5q-26 0 -45.5 -15.5t-19.5 -37.5zM97 625q0 38 29.5 66.5t71.5 28.5q40 0 70.5 -29t30.5 -67q0 -40 -30 -69.5t-70 -29.5q-44 0 -73 29.5t-29 70.5z" />
<glyph unicode="&#x2dc;" horiz-adv-x="333" d="M26 536h-15q4 126 92 126q19 0 36 -6q19 -6 62 -35q41 -27 60 -27q36 0 47 68h15q0 -61 -27 -94.5t-66 -33.5t-96 39q-43 30 -62 30q-20 0 -32 -18q-5 -8 -14 -49z" />
<glyph unicode="&#x410;" horiz-adv-x="722" d="M498 127l-40 95h-257l-45 -105q-16 -36 -16 -57q0 -36 76 -42v-18h-208v18q39 7 54 19q23 23 55 96l233 544h17l230 -550q29 -69 50 -87q22 -19 64 -22v-18h-261v18q67 4 67 41q0 23 -19 68zM216 258h228l-112 268z" />
<glyph unicode="&#x411;" horiz-adv-x="574" d="M23 662h470l7 -144h-18q-16 70 -49 89q-31 19 -115 19h-111v-262h26q124 0 179 -16q58 -15 93.5 -59t35.5 -104q0 -74 -55 -129q-54 -56 -188 -56h-280v18q60 1 78 19q17 19 17 84v421q0 52 -7 67q-7 18 -23.5 25.5t-59.5 9.5v18zM207 324v-284q41 -7 67 -7q61 0 108 40 q49 40 49 111q0 70 -49 107t-131 37q-24 0 -44 -4z" />
<glyph unicode="&#x412;" horiz-adv-x="667" d="M462 338q68 -15 103 -47q47 -45 47 -110q0 -50 -31 -94q-32 -46 -86 -66q-54 -21 -166 -21h-312v18h25q41 0 59 27q11 17 11 72v428q0 61 -14 78q-20 21 -56 21h-25v18h286q78 0 128 -11q72 -18 111.5 -62t39.5 -103q0 -51 -31 -90.5t-89 -57.5zM206 619v-255 q36 -6 92 -6q72 0 107 15t54.5 46.5t19.5 69.5q0 62 -48.5 101.5t-136.5 39.5q-47 0 -88 -11zM206 320v-272q55 -13 112 -13q85 0 133 38.5t48 99.5q0 65 -52.5 108t-154.5 43q-63 0 -86 -4z" />
<glyph unicode="&#x413;" horiz-adv-x="578" d="M18 662h531l3 -154h-19q-1 45 -20 74q-17 28 -42 36t-78 8h-185v-505q0 -67 16 -84q18 -18 78 -19v-18h-284v18q62 2 79 19q17 19 17 84v421q0 65 -17 82q-17 18 -79 20v18z" />
<glyph unicode="&#x414;" horiz-adv-x="682" d="M118 644v18h546v-18q-60 -1 -79 -20q-17 -17 -17 -82v-367q0 -107 12 -132q13 -25 80 -25v-208h-17q-24 107 -77 150q-52 40 -135 40h-8h-169q-110 0 -162 -60q-53 -60 -63 -130h-16v208q78 7 127 94q50 89 69 215q19 124 19 209q0 50 -12 72q-13 24 -29 28q-18 7 -69 8z M475 626h-198q-12 -287 -47 -406q-35 -117 -91 -184h245q64 0 78 11q13 12 13 75v504z" />
<glyph unicode="&#x415;" horiz-adv-x="611" d="M391 626h-182v-262h145q56 0 76 18q27 23 28 79h19v-231h-19q-6 49 -13 62q-19 37 -91 37h-145v-218q0 -45 4 -54q9 -21 51 -21h112q54 0 81 8q25 8 49 31q30 29 62 91h20l-57 -166h-510v18h23q23 0 44 12q16 7 21.5 23.5t5.5 63.5v430q0 63 -12 78q-18 19 -59 19h-23v18 h510l7 -145h-19q-11 55 -23 72q-12 20 -37 30q-18 7 -68 7z" />
<glyph unicode="&#x416;" horiz-adv-x="896" d="M590 0h-285v18q61 2 79 19q17 19 17 84v202l-13 1q-19 0 -30 -7t-19 -18q-1 -1 -65 -118l-97 -181h-168v18q71 12 106 56q38 50 118 192q32 54 59 73q-29 23 -44 51q-13 25 -40 112q-19 65 -30 82q-10 16 -27 16t-42 -15q-26 -14 -43 -14q-20 0 -33.5 12t-13.5 31 q0 23 21.5 39.5t59.5 16.5t70 -20q30 -18 44 -47q16 -31 37 -104q22 -69 33 -94q25 -48 88 -48q11 0 29 3v182q0 65 -17 82q-17 18 -79 20v18h285v-18q-61 -1 -78 -20q-17 -17 -17 -82v-182q13 -3 26 -3q36 0 57 12q22 14 32 36q10 19 34 94q23 79 36 103q15 29 46.5 48.5 t68.5 19.5t59 -16t22 -40q0 -19 -13 -31t-34 -12q-16 0 -42 14q-27 15 -43 15t-27 -17t-30 -81q-27 -87 -40 -113q-14 -26 -44 -50q22 -15 40 -41q14 -19 73 -123q53 -95 84 -121q32 -26 87 -36v-18h-169q-6 14 -75 141l-76 141q-20 42 -59 42q-8 0 -13 -1v-202 q0 -65 17 -84q18 -18 78 -19v-18z" />
<glyph unicode="&#x417;" horiz-adv-x="501" d="M67 484h-17v193h17q7 -33 36 -33q13 0 46 13q57 20 116 20q82 0 131 -49q50 -50 50 -115q0 -59 -36.5 -102t-100.5 -64q67 -12 108.5 -61t41.5 -115q0 -81 -63 -134q-62 -52 -158 -52q-141 0 -217 133l17 11q25 -43 73 -71t101 -28q63 0 100 42t37 106q0 66 -46 109 q-45 45 -150 45v32q73 0 111 15q39 16 62 52t23 81q0 55 -32.5 88.5t-88.5 33.5q-68 0 -108.5 -39.5t-52.5 -110.5z" />
<glyph unicode="&#x418;" horiz-adv-x="722" d="M208 160l307 393q0 60 -20 75q-19 16 -78 16v18h287v-18q-60 -1 -79 -20q-17 -17 -17 -82v-421q0 -65 17 -84q19 -18 79 -19v-18h-287v18q63 2 80 20q18 18 18 83v380l-307 -394q0 -40 5 -57q11 -31 91 -32v-18h-286v18q62 2 79 19q17 19 17 84v421q0 65 -17 82 q-17 18 -79 20v18h286v-18q-62 -2 -79 -20q-17 -17 -17 -82v-382z" />
<glyph unicode="&#x419;" horiz-adv-x="722" d="M512 792q15 0 26 -13t11 -31q0 -46 -47.5 -76t-140.5 -30t-140 30t-47 76q0 18 11 31t26 13q17 0 28 -12.5t32 -55.5q30 -60 90 -60t90 60q21 43 32 55.5t29 12.5zM208 160l307 337q0 59 -20 76q-19 16 -78 16v18h287v-18q-60 -1 -79 -20q-17 -17 -17 -83v-365 q0 -65 17 -84q19 -18 79 -19v-18h-287v18q63 2 80 20q18 18 18 83v324l-307 -338q0 -40 5 -57q11 -31 91 -32v-18h-286v18q62 2 79 19q17 19 17 84v365q0 66 -17 83q-17 18 -79 20v18h286v-18q-62 -2 -79 -20q-17 -17 -17 -83v-326z" />
<glyph unicode="&#x41a;" horiz-adv-x="667" d="M664 18v-18h-171q-32 50 -118 168q-87 121 -109 136q-20 14 -58 15v-198q0 -67 16 -84q18 -17 79 -19v-18h-285v18q60 1 78 19t18 84v421q0 65 -17 82q-17 18 -79 20v18h285v-18q-62 -2 -79 -20q-16 -16 -16 -82v-185q55 2 73 7q20 7 46 30q27 25 41 51q16 29 38 89 q21 56 36 80t46.5 40t71.5 16q75 0 75 -53q0 -18 -15 -31.5t-34 -13.5q-14 0 -45 15q-30 14 -40 14q-17 0 -27 -16q-11 -18 -36 -83q-47 -125 -119 -159q43 -7 123 -122q82 -120 122 -161q41 -41 100 -42z" />
<glyph unicode="&#x41b;" horiz-adv-x="678" d="M471 121v505h-205v-185q0 -282 -49 -365q-48 -84 -133 -84q-35 0 -55 17.5t-20 42.5q0 18 12.5 31t30.5 13q16 0 35 -15q22 -16 39 -16q43 0 70 70q27 71 27 268v139q0 66 -18 82q-17 19 -78 20v18h533v-18q-62 -2 -79 -20q-17 -17 -17 -82v-421q0 -65 17 -84 q17 -17 79 -19v-18h-285v18q61 2 79 19q17 19 17 84z" />
<glyph unicode="&#x41c;" horiz-adv-x="889" d="M425 0h-16l-256 557v-442q0 -60 14 -76q18 -21 57 -21h23v-18h-230v18h23q42 0 60 26q10 14 10 71v433q0 44 -9 63q-16 33 -84 33v18h187l240 -518l237 518h187v-18h-23q-42 0 -60 -25q-11 -17 -11 -71v-433q0 -60 14 -76q18 -21 57 -21h23v-18h-281v18h23q43 0 60 26 q11 16 11 71v442z" />
<glyph unicode="&#x41d;" horiz-adv-x="722" d="M206 545v-190h307v190q0 51 -6 67q-5 12 -21 21q-22 11 -44 11h-24v18h284v-18h-24q-22 0 -44 -11q-16 -7 -22 -24q-5 -17 -5 -64v-428q0 -49 6 -66q4 -12 20 -21q23 -12 45 -12h24v-18h-284v18h24q40 0 59 24q12 16 12 75v202h-307v-202q0 -49 6 -66q4 -12 20 -21 q21 -12 45 -12h24v-18h-284v18h24q41 0 59 24q12 16 12 75v428q0 52 -7 67q-5 13 -20 21q-22 11 -44 11h-24v18h284v-18h-24q-23 0 -45 -11q-15 -7 -21 -24q-5 -17 -5 -64z" />
<glyph unicode="&#x41e;" horiz-adv-x="722" d="M366 682q128 0 223 -98t95 -244q0 -150 -96 -251q-94 -99 -230 -99q-137 0 -230 97t-93 252q0 157 108 257q94 86 223 86zM356 647q-88 0 -142 -66q-67 -82 -67 -240q0 -163 69 -250q54 -66 141 -66q93 0 154 72q61 73 61 230q0 171 -67 253q-54 67 -149 67z" />
<glyph unicode="&#x41f;" horiz-adv-x="722" d="M515 121v505h-307v-505q0 -67 16 -84q18 -17 79 -19v-18h-285v18q62 2 79 19q17 19 17 84v421q0 65 -17 82q-17 18 -79 20v18h686v-18q-60 -1 -79 -20q-17 -17 -17 -82v-421q0 -65 17 -84q19 -18 79 -19v-18h-285v18q60 1 78 19t18 84z" />
<glyph unicode="&#x420;" horiz-adv-x="556" d="M205 310v-193q0 -61 14 -77q18 -22 56 -22h25v-18h-283v18h25q41 0 60 28q9 15 9 71v428q0 64 -13 78q-20 21 -56 21h-25v18h242q89 0 140 -18q54 -19 88 -63t34 -102q0 -83 -54 -132.5t-151 -49.5q-49 0 -111 13zM205 614v-276q50 -10 80 -10q51 0 88 39q37 40 37 102v6 q0 63 -39 106q-38 42 -94 42h-8q-25 0 -64 -9z" />
<glyph unicode="&#x421;" horiz-adv-x="667" d="M585 687h17l15 -225h-15q-56 190 -221 190q-105 0 -169.5 -81t-64.5 -241v-11q0 -126 66 -203q67 -78 177 -78h5q63 0 113 27q52 30 109 110l15 -10q-49 -88 -115.5 -129t-158.5 -41q-164 0 -254 122q-68 92 -68 214v8q0 93 44 173q45 83 124 130q73 45 158 45h11 q70 0 142 -35q20 -11 29 -11q13 0 23 10q13 13 18 36z" />
<glyph unicode="&#x422;" horiz-adv-x="611" d="M38 662h541l7 -155h-19q-4 40 -14 59q-30 55 -107 55h-93v-506q0 -62 13 -76q20 -21 57 -21h23v-18h-280v18h23q42 0 60 26q10 14 10 71v506h-79q-48 0 -66 -7q-59 -20 -65 -107h-19z" />
<glyph unicode="&#x423;" horiz-adv-x="708" d="M13 644v18h268v-18q-71 -3 -71 -38q0 -24 53 -116l144 -254l106 254q33 80 33 107q0 38 -62 47v18h208v-18q-74 -9 -111 -99l-127 -301q-52 -120 -80 -165q-60 -94 -143 -94q-34 0 -57 15t-23 39q0 18 12.5 30t33.5 12q20 0 49 -17q19 -10 28 -10q39 0 87 80l-240 422 q-26 45 -48.5 63.5t-59.5 24.5z" />
<glyph unicode="&#x424;" horiz-adv-x="790" d="M538 18v-18h-286v18q57 1 76 15.5t20 58.5q-164 0 -238 69q-73 70 -73 174q0 78 43 133q43 54 105.5 76t162.5 22q-2 41 -13 54q-10 13 -26 18q-13 4 -57 6v18h286v-18q-57 -1 -76 -17q-19 -15 -20 -61q104 0 165 -23q64 -25 105 -79t41 -129q0 -101 -71 -172t-240 -71 q1 -44 20 -58.5t76 -15.5zM442 530v-402q73 0 114 19q44 19 71.5 68.5t27.5 119.5q0 68 -28 114q-27 46 -69 63.5t-116 17.5zM348 128v402q-78 0 -117 -19q-43 -19 -69.5 -64t-26.5 -112q0 -75 32 -127q31 -48 73 -64t108 -16z" />
<glyph unicode="&#x425;" horiz-adv-x="722" d="M540 535l-132 -168l142 -212q57 -87 88 -111q29 -23 72 -26v-18h-284v18q28 2 42 6q24 11 24 32q0 10 -5 22q-3 8 -27 43l-112 170l-139 -177q-30 -40 -30 -58q0 -34 63 -38v-18h-235v18q23 3 43 11q60 23 120 100l157 197l-131 191q-53 77 -90 101q-36 24 -85 26v18h306 v-18q-68 -1 -68 -37q0 -18 23 -53l102 -152l117 149q30 37 30 56q0 11 -6 18q-7 11 -19 15t-46 4v18h235v-18q-29 -2 -45 -9q-26 -11 -48 -30q-21 -18 -62 -70z" />
<glyph unicode="&#x426;" horiz-adv-x="722" d="M703 18v-208h-17q-13 73 -64 133q-50 57 -155 57h-449v18q62 2 79 19q17 19 17 84v421q0 65 -17 82q-17 18 -79 20v18h285v-18q-61 -1 -78 -20q-17 -17 -17 -82v-442q0 -45 5 -55q5 -9 59 -9h170q64 0 68 9q5 12 5 65v432q0 66 -18 82q-17 18 -79 20v18h286v-18 q-60 -1 -79 -20q-17 -17 -17 -82v-423q0 -68 16 -84q17 -17 79 -17z" />
<glyph unicode="&#x427;" horiz-adv-x="650" d="M442 340v199q0 57 -7 72q-13 33 -88 33v18h285v-18q-41 0 -62 -9q-19 -7 -27 -25q-7 -15 -7 -71v-416q0 -55 8 -73q8 -16 27.5 -23t60.5 -9v-18h-285v18q42 1 62 9q18 7 26 24q7 15 7 72v178q-122 -55 -200 -55q-57 0 -95 23q-36 22 -45 50q-9 27 -9 108v112q0 57 -7 72 q-13 33 -89 33v18h286v-18q-41 0 -63 -9q-21 -9 -27 -27t-6 -69v-91q0 -67 7 -92q14 -56 87 -56q74 0 161 40z" />
<glyph unicode="&#x428;" horiz-adv-x="1009" d="M981 18v-18h-953v18l18 2q37 3 52 18q15 16 15 83v421q0 65 -16 81q-15 18 -69 21v18h254v-18q-48 -5 -62 -23q-13 -17 -13 -79v-421q0 -51 3 -64q4 -13 13 -17t39 -4h129q48 0 58 8q9 8 9 77v421q0 58 -14 78t-62 24v18h244v-18q-49 -5 -62 -24q-13 -17 -13 -78v-421 q0 -64 8 -75q9 -10 64 -10h131q27 0 35 5q9 5 10 14q3 9 3 66v421q0 59 -14 78q-14 20 -61 24v18h252v-18q-38 -2 -54 -11q-18 -9 -23.5 -27t-5.5 -64v-421q0 -53 4 -65q5 -15 19 -26q15 -10 62 -12z" />
<glyph unicode="&#x429;" horiz-adv-x="1009" d="M716 0h-688v18l18 2q37 3 52 18q15 16 15 83v421q0 65 -16 81q-15 18 -69 21v18h254v-18q-48 -5 -62 -23q-13 -17 -13 -79v-421q0 -51 3 -64q4 -13 13 -17t39 -4h129q48 0 58 8q9 8 9 77v421q0 58 -14 78t-62 24v18h244v-18q-49 -5 -62 -24q-13 -17 -13 -78v-421 q0 -64 8 -75q9 -10 64 -10h131q27 0 35 5q9 5 10 14q3 9 3 66v421q0 59 -14 78q-14 20 -61 24v18h252v-18q-38 -2 -54 -11q-18 -9 -23.5 -27t-5.5 -64v-421q0 -53 4 -65q5 -15 19 -26q15 -10 62 -12v-208h-17q-19 78 -52 121q-31 40 -73 55q-44 14 -123 14z" />
<glyph unicode="&#x42a;" horiz-adv-x="706" d="M339 542v-178h26q124 0 179 -16q58 -15 93.5 -59t35.5 -104q0 -74 -55 -129q-56 -56 -188 -56h-281v18q61 2 79 19q17 19 17 84v505h-42q-66 0 -93 -8q-55 -14 -64 -102h-20l8 146h401v-18q-62 -2 -79 -20q-17 -17 -17 -82zM339 324v-284q38 -7 67 -7q61 0 108 40 q49 40 49 111q0 70 -49.5 107t-130.5 37q-24 0 -44 -4z" />
<glyph unicode="&#x42b;" horiz-adv-x="872" d="M208 542v-178h26q123 0 178 -16q59 -15 94.5 -59t35.5 -104q0 -74 -55 -129q-56 -56 -189 -56h-280v18q62 2 79 19q17 19 17 84v421q0 65 -17 82q-17 18 -79 20v18h285v-18q-61 -1 -78 -20q-17 -17 -17 -82zM208 324v-284q39 -7 66 -7q60 0 109 40t49 111q0 70 -49.5 107 t-130.5 37q-24 0 -44 -4zM838 18h15v-18h-283v18h19q29 0 46 10q18 11 24 25q6 17 6 64v428q0 50 -7 65q-12 34 -73 34h-15v18h283v-18h-15q-30 0 -49 -9q-18 -8 -24.5 -25.5t-6.5 -64.5v-428q0 -59 15 -79q17 -20 65 -20z" />
<glyph unicode="&#x42c;" horiz-adv-x="574" d="M207 542v-178h26q124 0 179 -16q58 -15 93.5 -59t35.5 -104q0 -74 -55 -129q-54 -56 -188 -56h-280v18q60 1 78 19q17 19 17 84v421q0 65 -17 82q-17 19 -78 20v18h285v-18q-62 -2 -79 -20q-17 -17 -17 -82zM207 324v-284q41 -7 67 -7q61 0 108 40q49 40 49 111 q0 70 -49 107t-131 37q-24 0 -44 -4z" />
<glyph unicode="&#x42d;" horiz-adv-x="660" d="M56 455l11 222h17q20 -35 37 -35q8 0 28 7q77 28 142 28q178 0 283 -165q50 -79 50 -183q0 -144 -94 -244q-93 -100 -239 -100q-167 0 -262 153l13 10q92 -125 230 -125q137 0 204 136q35 70 35 163h-258v36h258q-10 148 -76 217q-65 68 -144 68q-70 0 -137 -52 q-66 -50 -80 -136h-18z" />
<glyph unicode="&#x42e;" horiz-adv-x="1028" d="M343 319h-136v-202q0 -60 15 -79.5t65 -19.5h15v-18h-283v18h20q28 0 45 10q19 11 23 25q6 17 6 64v428q0 49 -6 65q-12 34 -73 34h-15v18h283v-18h-15q-37 0 -51 -10q-14 -8 -22 -23q-7 -13 -7 -66v-191h136q8 145 104 233q97 90 227 90q125 0 221 -96t96 -246 q0 -143 -92 -247q-91 -103 -233 -103h-5q-131 0 -222 95q-93 96 -96 239zM665 642q-97 0 -153.5 -79.5t-56.5 -226.5q0 -139 53 -228q54 -88 157 -88q101 0 157.5 78.5t56.5 223.5q0 151 -55 235.5t-159 84.5z" />
<glyph unicode="&#x42f;" horiz-adv-x="667" d="M-9 0v18q53 6 88 27q35 23 81 88l136 190q-81 18 -122 62t-41 107q0 55 34 97t86 58q49 15 156 15h241v-18h-25q-37 0 -57 -21q-13 -14 -13 -78v-428q0 -57 10 -71q18 -28 60 -28h25v-18h-284v18h26q37 0 56 22q13 14 13 77v193q-9 -1 -28 -1q-24 0 -41 1l-224 -310h-177 zM461 341v275q-48 9 -76 9q-64 0 -103 -38.5t-39 -100.5q0 -66 49.5 -106t141.5 -40q2 0 11 0.5t16 0.5z" />
<glyph unicode="&#x430;" horiz-adv-x="444" d="M285 60q-71 -54 -87 -62q-26 -12 -56 -12q-46 0 -76 32t-30 83q0 32 14 57q20 34 69 62q48 29 166 72v17q0 64 -20.5 90.5t-62.5 26.5q-30 0 -49 -17q-19 -16 -19 -38l1 -28q0 -21 -11.5 -34t-29.5 -13t-29.5 13t-11.5 35q0 42 43 76q44 36 120 36q60 0 98 -20 q28 -15 42 -48q9 -21 9 -86v-151q0 -59 2 -79q5 -24 22 -24q8 0 13 4q12 7 40 35v-27q-55 -73 -105 -73q-52 0 -52 73zM285 92v170q-73 -28 -96 -42q-71 -39 -71 -96q0 -34 20.5 -57.5t48.5 -23.5q37 0 98 49z" />
<glyph unicode="&#x431;" horiz-adv-x="509" d="M73 320q55 141 190 141q94 0 152 -70q60 -71 60 -160q0 -93 -61 -169q-60 -75 -162 -75q-104 0 -160 86q-54 87 -54 211q0 98 28 181q29 85 60 125q31 41 72 61q38 18 145 20q78 2 90 4q16 3 30 20h19q-16 -48 -39 -69q-22 -19 -49 -27q-25 -7 -94 -9q-72 -1 -102 -11 q-27 -9 -58 -44q-60 -71 -67 -215zM246 427q-51 0 -81 -42t-30 -125q0 -118 42 -179q42 -60 97 -60q109 0 109 177q0 99 -38 164t-99 65z" />
<glyph unicode="&#x432;" horiz-adv-x="472" d="M315 237q122 -26 122 -115q0 -60 -50.5 -91t-142.5 -31h-221v18q45 0 55 16q12 16 12 71v238q0 51 -5 61q-13 25 -62 25v19h206h16q158 0 165 -113q0 -75 -95 -98zM171 416v-168l26 -1q63 0 94.5 24.5t31.5 63.5q0 43 -30 62t-97 19h-25zM171 215v-175q26 -8 58 -8 q56 0 85.5 25t29.5 66q0 45 -36 69t-102 24q-23 0 -35 -1z" />
<glyph unicode="&#x433;" horiz-adv-x="410" d="M15 448h371l18 -123h-22q-18 61 -37 76t-79 15h-95v-311q0 -50 5 -62q15 -25 63 -25v-18h-224v18q47 1 61 15t14 72v238q0 45 -5 60t-19 20t-51 6v19z" />
<glyph unicode="&#x434;" horiz-adv-x="509" d="M92 429v19h395v-19q-34 0 -44 -7q-11 -6 -18 -16q-6 -10 -6 -63v-222q0 -69 12 -85t56 -18v-142h-19q-7 67 -42 97q-32 27 -106 27h-15h-115q-54 0 -84 -9q-31 -10 -51 -40.5t-24 -74.5h-18v142q40 1 72 32q33 30 58 118q25 87 25 175q0 85 -76 86zM338 416h-138v-27 q0 -240 -87 -357h166q45 0 52 7t7 56v321z" />
<glyph unicode="&#x435;" horiz-adv-x="444" d="M416 279h-310q0 -101 49 -156q49 -57 115 -57q91 0 130 107l16 -10q-10 -66 -60 -122q-50 -54 -124 -54q-79 0 -138 62q-57 63 -57 169q0 114 59 179q58 64 148 64q75 0 123 -50q49 -49 49 -132zM106 307h207q-1 40 -10 61q-12 27 -36 43t-51 16q-41 0 -72.5 -32.5 t-37.5 -87.5z" />
<glyph unicode="&#x436;" horiz-adv-x="691" d="M456 0h-221v18q46 4 58 24t12 81v102q-32 0 -43 -8q-9 -7 -35 -55l-84 -162h-132v18q35 3 52 19q18 17 47 77q47 92 67 111q21 19 45 21q-31 14 -56 80q-13 33 -20 42.5t-20 9.5q-10 0 -25 -6q-24 -8 -34 -8q-20 0 -31 12.5t-11 31.5q0 21 16.5 33t40.5 12q40 0 64 -23.5 t46 -85.5q20 -55 45.5 -74t67.5 -19v73q0 63 -13 82q-13 18 -57 23v19h221v-19q-44 -5 -57 -24q-13 -17 -13 -81v-73q42 0 67.5 19t45.5 74q25 75 54 92t55 17q28 0 43.5 -12.5t15.5 -32.5q0 -18 -12 -31t-30 -13q-11 0 -35 8q-15 6 -23 6q-14 0 -21.5 -9.5t-20.5 -42.5 q-25 -66 -56 -80q25 -2 47 -23q20 -18 64 -107q33 -64 48 -79q17 -16 52 -19v-18h-132l-84 162q-25 47 -36 55t-42 8v-102q0 -69 14 -85q16 -14 56 -20v-18z" />
<glyph unicode="&#x437;" horiz-adv-x="395" d="M59 307h-18v141h21q8 -8 19 -8q6 0 36 8q45 13 76 13q65 0 108 -30.5t43 -78.5q0 -76 -115 -110q134 -29 134 -126q0 -54 -45 -91.5t-123 -37.5q-53 0 -93.5 19t-89.5 65l12 13q80 -62 152 -62q42 0 68 27.5t26 72.5q0 97 -125 103v28q60 0 85 31q27 32 27 68 q0 33 -23.5 56.5t-59.5 23.5q-86 0 -115 -125z" />
<glyph unicode="&#x438;" horiz-adv-x="535" d="M171 343v-205l193 224q-1 37 -14 51.5t-45 15.5v19h208v-19q-34 0 -44 -7q-11 -6 -18 -16q-6 -10 -6 -63v-238q0 -50 5 -62q15 -25 63 -25v-18h-217v18q40 0 54 15q14 16 14 72v211l-193 -224q1 -43 12 -58t46 -16v-18h-207v18q44 0 56 16t12 71v238q0 51 -5 61 q-13 25 -63 25v19h217v-19q-34 0 -44 -7q-11 -6 -18 -16q-6 -10 -6 -63z" />
<glyph unicode="&#x439;" horiz-adv-x="535" d="M171 343v-205l193 224q-1 37 -14 51.5t-45 15.5v19h208v-19q-34 0 -44 -7q-11 -6 -18 -16q-6 -10 -6 -63v-238q0 -50 5 -62q15 -25 63 -25v-18h-217v18q40 0 54 15q14 16 14 72v211l-193 -224q1 -43 12 -58t46 -16v-18h-207v18q44 0 56 16t12 71v238q0 51 -5 61 q-13 25 -63 25v19h217v-19q-34 0 -44 -7q-11 -6 -18 -16q-6 -10 -6 -63zM107 627q0 17 9.5 27.5t24.5 10.5q32 0 57 -61q22 -51 69 -51q30 0 46 13t29 48q21 50 51 50q14 0 24.5 -10.5t10.5 -25.5q0 -38 -50 -70t-110 -32q-78 0 -119.5 28t-41.5 73z" />
<glyph unicode="&#x43a;" horiz-adv-x="486" d="M480 18v-18h-132q-62 90 -111 183q-14 25 -23 34t-25 9l-18 -1v-120q0 -47 5 -62q12 -25 70 -25v-18h-224v18q44 0 56 16t12 71v238q0 51 -5 61q-13 25 -63 25v19h224v-19q-40 0 -50 -6q-10 -7 -17 -15q-8 -8 -8 -65v-88q7 -1 15 -1q34 0 58.5 18.5t44.5 69.5 q20 53 31 70q29 41 81 41q27 0 42.5 -12.5t15.5 -33.5q0 -18 -11 -29.5t-31 -11.5q-11 0 -27 6q-20 7 -32 7q-22 0 -37 -38q-16 -44 -24 -58q-7 -12 -30 -34q14 -4 33 -23t66 -103q40 -70 58 -86q19 -18 56 -19z" />
<glyph unicode="&#x43b;" horiz-adv-x="499" d="M77 429v19h400v-19q-34 0 -44 -7q-11 -6 -18 -16q-6 -10 -6 -63v-238q0 -50 5 -62q15 -25 63 -25v-18h-231v18q39 0 51 4q17 4 24.5 21t7.5 62v311h-149v-189q0 -109 -10 -150q-9 -41 -36.5 -63t-65.5 -22q-62 0 -62 52q0 18 10 29t26 11t32 -14q20 -18 29 -18 q22 0 32 37.5t10 128.5v98q0 76 -11 93t-57 20z" />
<glyph unicode="&#x43c;" horiz-adv-x="633" d="M180 448l140 -331l140 331h151v-19q-34 0 -44 -7q-11 -6 -18 -16q-6 -10 -6 -63v-238q0 -48 4 -60q11 -27 64 -27v-18h-216v18q39 0 53 15q14 16 14 72v269l-158 -374h-17l-162 374v-269q0 -45 5 -60q11 -27 63 -27v-18h-171v18q44 0 56 16t12 71v238q0 51 -5 61 q-13 25 -63 25v19h158z" />
<glyph unicode="&#x43d;" horiz-adv-x="535" d="M171 343v-95h193v95q0 43 -4 55q-7 31 -64 31v19h217v-19q-32 0 -45 -7q-14 -8 -18 -20q-5 -15 -5 -59v-238q0 -43 3 -56q8 -31 65 -31v-18h-217v18q40 0 54 15q14 16 14 72v111h-193v-111q0 -43 3 -56q8 -31 65 -31v-18h-217v18q44 0 56 16t12 71v238q0 43 -4 55 q-7 31 -64 31v19h217v-19q-32 0 -45 -7q-14 -8 -18 -20q-5 -15 -5 -59z" />
<glyph unicode="&#x43e;" d="M250 461q101 0 163 -77q52 -65 52 -152q0 -59 -29 -122q-27 -60 -77.5 -91.5t-113.5 -31.5q-101 0 -161 80q-50 68 -50 152q0 61 30 123q30 59 79 89t107 30zM235 429q-46 0 -78 -41t-32 -128q0 -97 38 -168q39 -71 103 -71q109 0 109 174q0 120 -52 187q-35 47 -88 47z " />
<glyph unicode="&#x43f;" horiz-adv-x="535" d="M364 105v311h-193v-311q0 -50 5 -62q15 -25 63 -25v-18h-217v18q44 0 56 16t12 71v238q0 51 -5 61q-13 25 -63 25v19h491v-19q-34 0 -44 -7q-11 -6 -18 -16q-6 -10 -6 -63v-238q0 -50 5 -62q15 -25 63 -25v-18h-217v18q40 0 54 15q14 16 14 72z" />
<glyph unicode="&#x440;" d="M5 387l-6 16l138 56h18v-105q64 107 143 107q68 0 113 -53q55 -64 55 -168q0 -117 -67 -191q-54 -62 -137 -62q-37 0 -63 10q-20 8 -44 29v-136q0 -46 6 -58q13 -28 70 -28v-18h-234v18h12q26 0 46 11q9 5 14 17q5 13 5 61v423q0 44 -4 55q-7 23 -35 23q-13 0 -30 -7z M155 325v-167q0 -53 5 -71q7 -29 34.5 -50t65.5 -21q49 0 79 38q40 49 40 140q0 102 -45 158q-32 38 -74 38q-24 0 -47 -12q-18 -10 -58 -53z" />
<glyph unicode="&#x441;" horiz-adv-x="444" d="M397 177l14 -7q-18 -85 -69.5 -134t-117.5 -49q-77 0 -134 63q-56 65 -56 173q0 106 63 172t151 66q64 0 107 -35q43 -34 43 -73q0 -18 -12 -29.5t-33 -11.5q-29 0 -43 18q-9 10 -12 39q-1 28 -19 44q-17 15 -48 15q-48 0 -78 -36q-40 -47 -40 -127q0 -79 39 -141 q40 -61 107 -61q48 0 86 32q26 21 52 82z" />
<glyph unicode="&#x442;" horiz-adv-x="437" d="M6 326l18 122h387l20 -122h-22q-6 37 -20 57t-31.5 26.5t-59.5 6.5h-39v-311q0 -49 6 -63t19 -18q14 -4 63 -6v-18h-243v18q46 2 60 15q14 16 14 72v311h-40q-40 0 -58 -5q-35 -12 -52 -85h-22z" />
<glyph unicode="&#x443;" d="M6 429v19h208v-19h-10q-44 0 -44 -33q0 -20 16 -52l109 -226l100 247q9 19 9 40q0 9 -4 13q-8 11 -41 11v19h145v-19q-18 -2 -27.5 -7.5t-21.5 -21.5q-7 -12 -17 -38l-182 -446q-25 -62 -67.5 -97t-83.5 -35q-28 0 -47 16.5t-19 38.5q0 21 13.5 33.5t36.5 12.5 q14 0 44 -11q21 -8 24 -8q37 0 67 74l32 78l-161 337q-10 21 -23 38q-12 17 -20 23q-12 9 -36 13z" />
<glyph unicode="&#x444;" horiz-adv-x="648" d="M216 623l-8 16l132 56h22v-275q44 41 90 41q63 0 108 -70q45 -69 45 -168q0 -96 -46 -166q-45 -70 -111 -70q-49 0 -86 43v-139q0 -46 5 -61q6 -15 21.5 -20.5t60.5 -5.5v-18h-241v18q49 0 63 14q15 14 15 73v139q-36 -43 -86 -43q-68 0 -113 70q-45 71 -45 171 q0 92 43 162q44 71 113 71q50 0 88 -47v121q0 61 -8 79t-27 18q-15 0 -35 -9zM286 64v306q-27 58 -70 58q-88 0 -88 -216q0 -192 88 -192q38 0 70 44zM362 388v-315q9 -25 30 -39t41 -14q39 0 62.5 49t23.5 146q0 213 -85 213q-36 0 -72 -40z" />
<glyph unicode="&#x445;" d="M13 429v19h211v-19q-37 0 -37 -24q0 -11 18 -37l16 -24l31 -51l37 51q35 49 35 61q0 24 -35 24v19h151v-19q-24 -2 -41 -13q-24 -16 -66 -72l-61 -82l112 -160q40 -58 58 -71q17 -11 46 -13v-18h-211v18q23 0 34 10q9 6 9 18t-31 56l-65 96l-72 -96q-33 -44 -33 -52 q0 -13 11.5 -22t32.5 -10v-18h-146v18q17 2 30 12q19 14 63 72l94 125l-85 123q-36 52 -56 66q-19 13 -50 13z" />
<glyph unicode="&#x446;" horiz-adv-x="535" d="M513 18v-142h-18q-1 56 -38 91q-36 33 -130 33h-305v18q44 0 56 16t12 71v238q0 51 -5 61q-13 25 -63 25v19h217v-19q-34 0 -44 -7q-11 -6 -18 -16q-6 -10 -6 -63v-253q0 -43 7 -50q8 -8 49 -8h79q46 0 52 8q6 9 6 54v249q0 44 -5 59q-10 27 -63 27v19h217v-19 q-34 0 -44 -7q-11 -6 -18 -16q-6 -10 -6 -63v-230q0 -62 11 -78t57 -17z" />
<glyph unicode="&#x447;" horiz-adv-x="503" d="M332 247v96q0 44 -5 59q-7 27 -62 27v19h216v-19q-34 0 -44 -7q-11 -6 -18 -16q-6 -10 -6 -63v-238q0 -48 4 -60q11 -27 64 -27v-18h-227v18q37 1 51 5q27 8 27 82v110q-71 -37 -151 -37q-43 0 -68 11q-23 11 -29.5 24.5t-6.5 47.5v82q0 44 -4 56q-8 30 -58 30v19h210 v-19q-34 0 -44 -7q-11 -6 -18 -16q-6 -10 -6 -63v-56q0 -31 5 -43q12 -26 69 -26q52 0 101 29z" />
<glyph unicode="&#x448;" horiz-adv-x="770" d="M748 18v-18h-726v18q40 0 54 15q14 16 14 72v238q0 51 -5 61q-13 25 -63 25v19h217v-19q-34 0 -44 -7q-11 -6 -18 -16q-6 -10 -6 -63v-247q0 -45 8 -55q7 -9 56 -9h53q31 0 40 3q10 4 13 13q4 8 4 58v237q0 51 -6 61q-13 25 -62 25v19h208v-19q-26 -1 -40 -9 q-11 -7 -16 -21q-4 -12 -4 -56v-253q0 -42 8 -50q10 -8 52 -8h58q47 0 51 10q5 12 5 61v240q0 52 -6 61q-13 25 -62 25v19h217v-19q-35 0 -45 -7q-12 -7 -17 -16q-6 -10 -6 -63v-211q0 -66 3 -82q4 -16 18 -23.5t47 -8.5z" />
<glyph unicode="&#x449;" horiz-adv-x="770" d="M568 0h-546v18q40 0 54 15q14 16 14 72v238q0 51 -5 61q-13 25 -63 25v19h217v-19q-34 0 -44 -7q-11 -6 -18 -16q-6 -10 -6 -63v-247q0 -45 8 -55q7 -9 56 -9h53q31 0 40 3q10 4 13 13q4 8 4 58v237q0 51 -6 61q-13 25 -62 25v19h208v-19q-26 -1 -40 -9q-11 -7 -16 -21 q-4 -12 -4 -56v-253q0 -42 8 -50q10 -8 52 -8h58q47 0 51 10q5 12 5 61v240q0 52 -6 61q-13 25 -62 25v19h217v-19q-35 0 -45 -7q-12 -7 -17 -16q-6 -10 -6 -63v-211q0 -66 3 -82q4 -16 18 -23.5t47 -8.5v-142h-19q-3 64 -38.5 94t-122.5 30z" />
<glyph unicode="&#x44a;" horiz-adv-x="517" d="M6 326l19 122h291v-19q-48 0 -59 -6q-10 -4 -18 -14q-8 -8 -8 -66v-91h42q82 0 124 -13t66 -43t24 -70q0 -126 -199 -126h-205v18q39 0 53 15q14 16 14 72v311q-58 0 -84 -17q-24 -16 -38 -73h-22zM231 218v-180q27 -6 52 -6q54 0 82.5 26.5t28.5 65.5q0 42 -30 69 t-82 27z" />
<glyph unicode="&#x44b;" horiz-adv-x="672" d="M424 429v19h225v-19q-30 0 -43 -7q-15 -7 -19 -19q-5 -15 -5 -60v-238q0 -48 4 -60q11 -27 63 -27v-18h-225v18q37 1 49 5q14 4 21 21t7 61v238q0 47 -6 60q-5 15 -19 20t-52 6zM170 343v-95l56 1q199 0 199 -123q0 -58 -49.5 -92t-138.5 -34h-215v18q43 0 55 16 q13 16 13 71v238q0 52 -6 61q-13 25 -62 25v19h234v-19q-48 0 -60 -6q-11 -5 -19 -14q-7 -8 -7 -66zM170 217v-178q24 -7 52 -7q48 0 79 26t31 65q0 94 -130 94h-32z" />
<glyph unicode="&#x44c;" horiz-adv-x="456" d="M171 343v-95l56 1q199 0 199 -123q0 -58 -49 -92t-140 -34h-215v18q44 0 56 16t12 71v238q0 51 -5 61q-13 25 -63 25v19h234v-19q-48 0 -59 -6q-11 -5 -19 -14q-7 -8 -7 -66zM171 217v-178q24 -7 52 -7q48 0 79 26t31 65q0 94 -131 94h-31z" />
<glyph unicode="&#x44d;" horiz-adv-x="429" d="M44 308v140h18q10 -10 21 -10q8 0 35 9q48 14 76 14q77 0 139 -65t62 -166t-61 -172q-60 -71 -156 -71q-98 0 -165 99l17 9q56 -78 138 -78q61 0 98 44.5t37 136.5v24h-148v32h145q-9 81 -42.5 128t-82.5 47q-45 0 -76 -34t-37 -87h-18z" />
<glyph unicode="&#x44e;" horiz-adv-x="747" d="M281 217h-111v-112q0 -49 5 -61q14 -26 63 -26v-18h-216v18q31 1 44 5q24 9 24 82v238q0 57 -12 71q-12 13 -56 15v19h216v-19q-32 0 -45 -8q-12 -7 -18 -18q-5 -12 -5 -60v-95h113q12 95 71 154q61 59 144 59q95 0 155 -69q60 -68 60 -160q0 -60 -30 -123 q-28 -60 -78.5 -91t-112.5 -31q-93 0 -151 67q-57 67 -60 163zM482 429q-50 0 -80 -43t-30 -126q0 -98 39 -169q39 -70 102 -70q109 0 109 174q0 101 -39 167q-37 67 -101 67z" />
<glyph unicode="&#x44f;" horiz-adv-x="460" d="M239 448h198v-19q-30 0 -45 -9q-15 -8 -18.5 -21t-3.5 -56v-238q0 -43 3 -56q9 -31 64 -31v-18h-216v18q41 0 54 15q14 16 14 72v97h-20h-16l-142 -202h-111v18q24 0 33 6q12 8 36 44l104 148q-112 39 -112 119q0 46 40 79q40 34 138 34zM289 235v175q-19 6 -36 6 q-47 0 -72.5 -23.5t-25.5 -59.5q0 -43 34.5 -71t87.5 -28q7 0 12 1z" />
<glyph unicode="&#x10d0;" horiz-adv-x="506" d="M456 250v-76q0 -90 -54.5 -144t-147.5 -55q-94 1 -149 52t-55 149v35q0 50 53 121l52 -30q-15 -34 -15 -91v-37q0 -66 29 -122t85 -56q113 0 113 178v76q0 143 -92 241q-100 106 -100 194v38h84v-38q0 -108 95 -208q102 -107 102 -227z" />
<glyph unicode="&#x10d1;" horiz-adv-x="506" d="M140 279v-100q0 -109 35 -147q35 -36 79 -36q50 0 82 36q31 37 31 142v104q0 113 -34 147q-35 35 -79 35q-42 0 -79 -35q-35 -35 -35 -146zM141 723h89q-1 -56 58 -94q29 -19 29 -55q0 -38 -30 -93q52 0 111 -59q58 -58 58 -141v-115q0 -77 -60 -134q-61 -56 -142 -56 q-88 0 -146 57t-58 135v113q0 83 64 141q65 59 128 59q11 35 11 63q0 57 -45 84q-67 40 -67 95z" />
<glyph unicode="&#x10d2;" horiz-adv-x="568" d="M428 189v69q0 72 -39 129q-37 58 -84 58h-31q-65 0 -100 -59q-34 -58 -33 -143v-53v-8q0 -72 36 -128q37 -58 107 -58h3q75 0 108 58q33 60 33 135zM518 247v-65q0 -92 -70 -150q-70 -57 -165 -57q-98 2 -165 67q-68 66 -68 140v64q0 80 66 151q66 69 181 69h3 q34 43 34 122q0 58 -18 86t-58 28q-37 0 -58 -24t-21 -67v-46h-83v46q0 50 45.5 81t117.5 31t115 -32.5t43 -94.5q0 -52 -81 -129q52 -5 116 -66q66 -61 66 -154z" />
<glyph unicode="&#x10d3;" horiz-adv-x="748" d="M608 417v81q0 123 -26 164q-25 40 -73 40q-47 0 -73 -41t-26 -162v-79q0 -86 18 -148t81 -62q64 0 82 62q17 60 17 136v9zM545 87v-101h-153q-134 0 -238 119q-104 121 -104 346v18q0 121 48.5 186t140.5 65q82 0 119 -79q46 79 151 79q82 0 135 -49q54 -49 54 -173v-83 q0 -116 -55 -171q-55 -54 -134 -54q-86 0 -137.5 59t-51.5 170v76q0 51 21 109q-44 98 -104 98q-43 0 -70 -49q-26 -48 -27 -184v-33q0 -195 70 -296q71 -101 182 -101q80 11 153 48z" />
<glyph unicode="&#x10d4;" horiz-adv-x="531" d="M456 573v-440q0 -74 -57 -116q-57 -40 -146 -42q-91 1 -147 51q-56 51 -56 117q0 123 103 184l28 -31q-41 -33 -41 -154q0 -76 27.5 -111t85.5 -35q114 0 114 139v438q0 65 -26.5 97t-70.5 32q-49 0 -76 -31.5t-27 -94.5q0 -48 8 -72l-51 -43q-43 59 -43 113q0 75 58 112 t125 37q88 0 140 -42.5t52 -107.5z" />
<glyph unicode="&#x10d5;" horiz-adv-x="506" d="M456 225v-88q0 -75 -60 -118q-58 -43 -143 -43q-87 0 -146 48q-57 48 -57 110v41q0 55 76 109l36 -24q-22 -26 -22 -89v-31q0 -65 30 -104.5t83 -39.5q60 0 87 35t27 106v88q0 142 -64 142h-71v35h74q51 2 51 146v22q0 132 -98 132q-53 0 -81.5 -32t-28.5 -87v-16 q0 -38 16 -73l-56 -28q-39 50 -39 97v25q0 63 47 99t142 36q86 0 137 -38.5t51 -109.5v-35q0 -82 -94 -149v-10q103 -37 103 -156z" />
<glyph unicode="&#x10d6;" horiz-adv-x="576" d="M304 547v56q0 50 -24.5 74.5t-60.5 24.5q-40 0 -62.5 -25.5t-22.5 -75.5v-54q0 -33 23 -64q23 -30 64 -30q38 0 60.5 28t22.5 66zM191 244v-56q0 -87 34.5 -139.5t90.5 -52.5q59 0 89.5 51.5t30.5 145.5v43q0 90 -34 138.5t-88 48.5q-123 0 -123 -179zM390 600v-26 q0 -45 -34 -83q-35 -38 -68 -48q113 0 175 -55q63 -54 63 -133v-78q0 -96 -62 -149q-61 -52 -150 -52q-92 0 -153 53q-59 53 -59 148v75q0 64 37 111q37 49 77 61h-5q-54 0 -106 39q-55 40 -55 103v38q0 54 47 86.5t121 32.5q172 0 172 -123z" />
<glyph unicode="&#x10d7;" horiz-adv-x="806" d="M372 238v304q0 83 -28.5 121.5t-75.5 38.5q-59 0 -86 -63t-27 -194v-182q0 -267 108 -267q109 0 109 242zM741 509l-1 -220q0 -203 -136 -314l-58 1q105 111 105 300v7l1 200q0 131 -24 174q-22 45 -69 45q-46 0 -72 -40.5t-26 -119.5v-302q1 -128 -50 -196t-148 -69 q-100 1 -149 69t-49 211v210q0 134 49 196t154 62q100 0 164 -90q38 90 125 90q182 0 184 -214z" />
<glyph unicode="&#x10d8;" horiz-adv-x="536" d="M471 444l-1 -184q0 -206 -115 -284h-44q70 77 70 256v212q0 152 -31 204q-30 54 -81 54q-57 0 -86 -54q-28 -53 -28 -204v-211q0 -180 71 -257h-44q-117 78 -117 284v188q0 156 55 215q56 60 149 60q98 0 149 -60q51 -59 53 -219z" />
<glyph unicode="&#x10d9;" horiz-adv-x="506" d="M456 218v-56q0 -87 -59 -137q-57 -48 -143 -50q-94 2 -149 48q-55 48 -55 108v45q0 69 82 111l25 -30q-17 -28 -17 -91v-24q0 -58 29 -102q30 -44 85 -44q57 0 85 40t28 126v56q0 86 -25.5 130.5t-66.5 44.5h-103v40h99q77 0 77 109v35q-1 55 -31 83q-29 28 -42 28v31 q51 0 106 -40q57 -39 57 -103v-18q0 -88 -111 -140l-1 -12q130 -52 130 -188z" />
<glyph unicode="&#x10da;" horiz-adv-x="981" d="M931 523v-51q0 -181 -149 -283l-21 35q81 74 81 255v38q0 107 -25 144t-64 37q-50 0 -74.5 -39.5t-24.5 -127.5v-163h-75v163q0 102 -25 136q-26 35 -63 35q-42 0 -66 -35q-23 -35 -23 -133v-166h-74v168q0 162 -98 162q-42 0 -66 -52t-24 -147v-36q0 -213 121 -319 q121 -105 253 -105q89 10 163 51v-104h-153q-190 0 -333 137q-141 138 -141 347v32q0 107 48 161.5t132 54.5q98 0 138 -79q28 84 122 84q90 0 127 -82q45 77 135 77q84 0 131.5 -48t47.5 -147z" />
<glyph unicode="&#x10db;" horiz-adv-x="531" d="M367 176v115q0 98 -26 138.5t-87 40.5q-114 0 -114 -182v-112q0 -88 31.5 -134t82.5 -46t82 45.5t31 134.5zM456 591v-428q0 -81 -57 -134q-55 -52 -145 -54q-76 1 -141 51q-63 51 -63 150v112q0 90 62 146q64 56 144 56q87 0 116 -56v157q0 52 -31.5 80t-79.5 28 q-100 0 -100 -87v-39h-89v39q-2 54 54 80q56 27 134 27t137 -32t59 -96z" />
<glyph unicode="&#x10dc;" horiz-adv-x="531" d="M391 178v117q0 85 -29.5 130t-82.5 45q-60 0 -87 -42.5t-27 -133.5v-122q0 -98 38 -138q40 -38 75 -38q61 0 87 45.5t26 136.5zM481 298v-128q0 -94 -59 -144t-144 -50q-76 0 -140 48q-63 50 -63 147v430q0 60 34.5 89t92.5 29q33 0 80.5 -12.5t65.5 -12.5q54 0 120 29 l-3 -54q-37 -30 -95 -30q-44 0 -85 27q-38 28 -73 28q-30 0 -42 -21.5t-12 -74.5v-177q44 69 120 69q96 0 149 -52t54 -140z" />
<glyph unicode="&#x10dd;" horiz-adv-x="815" d="M659 310v131q0 154 -26 208q-26 53 -76 53q-54 0 -84 -36q-29 -37 -29 -133v-274h-72v274q0 96 -33 132q-31 37 -80 37q-41 0 -73 -53q-31 -52 -31 -208v-131q0 -209 134 -334h-52q-172 112 -172 348v125q0 145 61 209q62 65 134 65q113 0 150 -100q37 100 148 100 q192 0 192 -274v-123q0 -237 -179 -350h-47q135 124 135 334z" />
<glyph unicode="&#x10de;" horiz-adv-x="506" d="M456 208v-38q0 -79 -53 -137q-53 -57 -149 -57q-80 0 -142 48q-62 50 -62 120v45q0 44 43 105l60 -31q-13 -35 -13 -85v-17q0 -71 30.5 -118t83.5 -47q57 0 85 48t28 133v29q0 154 -84 154h-66v41h66q28 0 41.5 22t14.5 77q0 80 -77 115q-77 36 -77 104h90q0 -91 72 -111 q73 -19 73 -106t-99 -117v-5q135 -57 135 -172z" />
<glyph unicode="&#x10df;" horiz-adv-x="531" d="M456 713v-566q0 -63 -50 -118q-50 -53 -152 -53q-108 0 -157 47q-47 49 -47 117q0 57 56 119l49 -27q-15 -36 -15 -85q0 -65 30.5 -108t83.5 -43q65 0 89 49t24 107v523l-198 -24v-12q122 -47 121 -145q2 -135 -240 -135v79q55 -25 90 -25q65 0 66 82q0 136 -133 136 q-11 0 -23 -1v33z" />
<glyph unicode="&#x10e0;" horiz-adv-x="786" d="M736 285v-32q0 -170 -158 -277h-51q119 107 119 277v32q0 185 -103 185q-110 0 -110 -173v-94h-80v94q0 173 -109 173q-46 0 -75 -38t-29 -147v-32q0 -171 135 -277h-61q-164 101 -164 277v32q0 143 153 288q155 146 360 146v-66q-19 2 -38 2q-99 0 -197 -45 q-115 -53 -171 -146q38 26 87 26q97 0 149 -103q55 103 150 103q83 0 138 -54t55 -151z" />
<glyph unicode="&#x10e1;" horiz-adv-x="531" d="M480 210v-20q1 -99 -54 -156.5t-148 -57.5t-148 57t-55 165v521l90 -16v-505q0 -103 27 -152.5t86 -49.5q56 0 84.5 51.5t28.5 142.5v20q0 73 -41 132t-41 113q0 44 34 93l55 -32q-36 -34 -37 -64q2 -49 60 -98q59 -50 59 -144z" />
<glyph unicode="&#x10e2;" horiz-adv-x="667" d="M513 241v131q0 156 -51 211q-51 56 -110 56l26 -337h-92l25 337q-56 -2 -106 -56q-50 -56 -50 -211v-131q0 -117 54 -181q55 -64 125 -64q74 0 126 64q53 65 53 181zM602 372v-131q0 -102 -77 -184q-76 -80 -191 -82q-118 1 -194 82q-75 81 -75 184v131q0 125 73 204 q74 80 173 80l-26 67h94l-27 -67q99 0 174 -80q76 -79 76 -204z" />
<glyph unicode="&#x10e3;" horiz-adv-x="574" d="M499 613v-436q0 -84 -44 -143q-43 -58 -148 -58q-91 0 -152 49t-61 138v27q0 89 89 139l19 -24q-18 -31 -18 -94v-49q0 -81 33.5 -123.5t89.5 -42.5q57 0 80.5 41.5t23.5 141.5v455q0 28 -18 48t-48 20q-27 0 -43 -23t-16 -60v-167h-65v167q0 37 -13.5 60t-35.5 23 q-26 0 -48 -42q-21 -41 -48 -41q-32 0 -56 32v68q23 -38 58 -38q23 0 41 19t47 19q59 0 88 -56q36 56 108 56q56 0 96 -24q41 -23 41 -82z" />
<glyph unicode="&#x10e4;" horiz-adv-x="768" d="M348 480v37q0 116 -28 150q-28 35 -73 35h-3h-3q-46 0 -74 -35q-27 -35 -27 -145v-42q0 -84 18 -131t86 -47q64 0 84 47q20 48 20 131zM694 177v-29q0 -68 -64 -120q-62 -52 -192 -52q-120 0 -184 52t-64 146h86q0 -83 45.5 -130.5t116.5 -47.5q80 0 124 45q43 44 43 107 v44q0 117 -62 117h-64v40h73q40 0 58 47q19 45 19 109v35q0 162 -84 162q-39 0 -74 -35q-34 -34 -34 -93l1 -95q-2 -89 -54 -144t-140 -55q-91 0 -143 55q-51 55 -51 145v37q0 105 49.5 153.5t146.5 48.5q132 0 167 -86q50 86 134 86q77 0 124 -53t47 -130v-15 q0 -122 -136 -188v-10q112 -40 112 -146z" />
<glyph unicode="&#x10e5;" horiz-adv-x="531" d="M456 714v-579q0 -60 -50 -110q-49 -49 -152 -49q-86 0 -145 48t-59 116v10q0 43 50 90h58q-18 -50 -18 -93v-12q0 -65 29 -102t85 -37q57 0 85 37t28 97v236q-2 90 -38.5 139t-92.5 49q-34 0 -53 -26.5t-19 -75.5q0 -43 20 -86h-63q-42 44 -42 86q2 59 46 90 q47 32 111 32q79 0 136 -69v183l-93 -20v36z" />
<glyph unicode="&#x10e6;" horiz-adv-x="730" d="M680 503v-10q0 -173 -116 -274l-28 30q54 79 54 218v33q0 99 -13 150q-13 52 -76 52q-45 0 -71 -30q-25 -29 -25 -131v-159h-80v159q-2 102 -26 131q-25 30 -68 30q-49 0 -70 -52q-21 -51 -21 -179v-33q0 -221 80 -310t185 -89q68 11 126 56v-109h-126q-145 0 -250 118 t-105 332v34q0 115 46 182t134 67q94 0 135 -77q41 77 134 77q106 0 143 -55q38 -55 38 -161z" />
<glyph unicode="&#x10e7;" horiz-adv-x="531" d="M456 719v-558q0 -91 -48 -138t-154 -47q-95 0 -149.5 40.5t-54.5 103.5q0 50 64 102h53q-27 -64 -27 -101q0 -55 29 -90t85 -35q65 0 89 43t24 131v215q-43 -51 -121 -51q-74 0 -127 46q-54 46 -54 131v23q-1 108 115 185l36 -19q-62 -80 -62 -155v-48q0 -69 28 -106.5 t68 -37.5q54 0 85 36q32 39 31 80l1 233z" />
<glyph unicode="&#x10e8;" horiz-adv-x="573" d="M408 176v82q0 186 -121 186q-61 0 -93 -62t-32 -135v-61q0 -70 33 -130t90 -60q61 0 92 60q31 59 31 120zM498 561v-371q0 -213 -213 -215q-96 2 -154 65q-58 64 -58 144v74q-1 82 57 144q58 63 155 63q74 0 128 -62l-1 195q0 53 -13.5 78.5t-53.5 25.5q-68 0 -68 -114 v-16h-56v16q0 56 -23.5 85t-58.5 29q-44 0 -44 -79v-63h-75v63q0 41 34 68.5t80 27.5q73 0 114 -68q36 68 103 68q89 0 117 -42q30 -42 30 -116z" />
<glyph unicode="&#x10e9;" horiz-adv-x="530" d="M327 514l-17 16q17 42 17 84q0 88 -90 88q-78 0 -78 -101v-214q41 62 119 62q103 0 152 -58q50 -58 50 -140v-48q0 -111 -110 -230h-68q89 83 89 232v42q0 182 -113 182q-51 0 -84.5 -38t-33.5 -93v-319h-85v626q0 38 34 75q35 39 126 39q82 0 128.5 -27t46.5 -77 q0 -57 -83 -101z" />
<glyph unicode="&#x10ea;" horiz-adv-x="571" d="M521 233v-40q0 -89 -60 -153t-171 -64q-121 0 -181 81q-59 83 -59 178v198q0 187 81 287h54q-45 -108 -45 -287v-197q0 -86 39 -163q41 -77 110 -77q79 0 110 61q33 61 33 136v38q0 61 -15 104t-61 43h-81v40h81q40 0 49 31q10 30 10 75q0 70 -61 104q-60 34 -60 92h79 q0 -64 65 -100q64 -34 66 -93v-1q-2 -87 -115 -121v-13q132 -32 132 -159z" />
<glyph unicode="&#x10eb;" horiz-adv-x="531" d="M367 177v132q0 61 -30 111t-83 50q-114 0 -114 -182v-114q0 -178 115 -178q63 0 87 55q25 54 25 126zM456 719v-545q0 -72 -50 -136q-50 -62 -151 -62q-107 0 -156 63q-49 62 -49 143v112q0 196 204 196q76 0 113 -66v278z" />
<glyph unicode="&#x10ec;" horiz-adv-x="547" d="M140 258v-82q0 -61 31 -120q31 -60 92 -60q57 0 89 60q33 60 33 130v61q0 73 -32 135t-93 62q-120 0 -120 -186zM50 190v371q0 73 29 116q29 42 117 42q67 0 105 -68q38 68 113 68q44 0 78 -27q35 -27 35 -69v-63h-75v63q0 79 -42 79q-34 0 -58.5 -33t-24.5 -81v-16h-56 v16q0 50 -19 82t-49 32q-41 0 -54.5 -25t-13.5 -79l-1 -195q56 62 129 62q95 0 154 -63q57 -60 57 -139v-5v-74q0 -80 -58 -144q-58 -63 -153 -65q-213 2 -213 215z" />
<glyph unicode="&#x10ed;" horiz-adv-x="506" d="M277 402l-10 128h-61q-48 0 -50 -62q2 -66 51 -66h70zM433 374h-79q0 -50 51 -103q51 -51 51 -131q0 -66 -47 -116q-47 -48 -154 -48q-96 0 -150.5 46t-54.5 119q0 69 90 125l28 -22q-28 -53 -28 -105q0 -56 31 -99q32 -44 84 -44q60 0 86 39t26 119q0 68 -44 124 q-43 55 -43 96h-72q-110 0 -111 94q1 87 111 87h59v131l-82 -18v35l160 15v-163h88v-25h-88l6 -128h82v-28z" />
<glyph unicode="&#x10ee;" horiz-adv-x="531" d="M165 309v-132q0 -71 24 -126q25 -55 88 -55q114 0 114 178v114q0 182 -113 182q-53 0 -83 -50t-30 -111zM75 174v545l90 -17v-278q36 66 113 66q203 0 203 -196v-112q0 -81 -49 -143q-48 -63 -155 -63q-101 0 -152 62q-50 64 -50 136z" />
<glyph unicode="&#x10ef;" horiz-adv-x="506" d="M68 535v40h151l-12 124l80 20l-17 -144h167v-40h-165q0 -59 92 -154t92 -185v-30q0 -80 -54 -135q-53 -54 -148 -56q-87 2 -145 60q-59 61 -59 125v44q0 90 108 157l23 -30q-41 -44 -41 -131v-34q0 -83 32.5 -126.5t81.5 -43.5q113 0 113 165v39q0 79 -74 180 q-73 101 -73 155h-152z" />
<glyph unicode="&#x10f0;" horiz-adv-x="506" d="M456 137q0 -74 -54 -117.5t-147 -43.5q-205 0 -205 204h90q0 -79 32 -132q31 -52 83 -52q112 0 112 132q0 138 -62 138h-132v37h132q48 0 48 89q0 78 -61 78h-133v40h133h2q45 0 45 83q0 65 -56 76q-55 10 -114 10h-11v40q118 0 191 -19q76 -19 79 -96q0 -66 -81 -107 v-12q95 -32 95 -92q0 -67 -91 -103v-11q105 -36 105 -142z" />
<glyph unicode="&#x2000;" horiz-adv-x="396" />
<glyph unicode="&#x2001;" horiz-adv-x="792" />
<glyph unicode="&#x2002;" horiz-adv-x="396" />
<glyph unicode="&#x2003;" horiz-adv-x="792" />
<glyph unicode="&#x2004;" horiz-adv-x="264" />
<glyph unicode="&#x2005;" horiz-adv-x="198" />
<glyph unicode="&#x2006;" horiz-adv-x="132" />
<glyph unicode="&#x2007;" horiz-adv-x="132" />
<glyph unicode="&#x2008;" horiz-adv-x="99" />
<glyph unicode="&#x2009;" horiz-adv-x="158" />
<glyph unicode="&#x200a;" horiz-adv-x="44" />
<glyph unicode="&#x2010;" horiz-adv-x="333" d="M41 188v73h252v-73h-252z" />
<glyph unicode="&#x2011;" horiz-adv-x="333" d="M41 188v73h252v-73h-252z" />
<glyph unicode="&#x2013;" d="M508 184v-36h-517v36h517z" />
<glyph unicode="&#x2014;" horiz-adv-x="1000" d="M1009 184v-36h-1018v36h1018z" />
<glyph unicode="&#x2018;" horiz-adv-x="333" d="M217 604v-21q-50 -30 -68 -56q-13 -19 -13 -45q0 -16 6 -23q4 -7 12 -7q5 0 14 3q15 5 21 5q20 0 35 -15t15 -37q0 -24 -15 -38q-20 -19 -49 -19q-34 0 -59.5 28.5t-25.5 68.5q0 59 43 105q29 31 84 51z" />
<glyph unicode="&#x2019;" horiz-adv-x="333" d="M116 351v23q50 30 69 56q12 18 12 44q0 15 -5 23q-6 7 -13 7q-5 0 -14 -3q-15 -5 -21 -5q-19 0 -34.5 15.5t-15.5 36.5q0 24 15 38q21 18 49 18q34 0 59.5 -28t25.5 -68q0 -59 -43 -105q-28 -31 -84 -52z" />
<glyph unicode="&#x201a;" horiz-adv-x="333" d="M99 -239v21q49 17 77 51.5t28 74.5q0 10 -4 15q-5 5 -7 5q-6 0 -23 -10q-8 -4 -19 -4q-24 0 -38 14t-14 39q0 24 18 41t45 17q34 0 58 -28.5t24 -74.5q0 -52 -36.5 -94.5t-108.5 -66.5z" />
<glyph unicode="&#x201c;" horiz-adv-x="444" d="M198 721v-20q-80 -41 -80 -100q0 -16 5 -23q4 -7 11 -7q4 0 17 3.5t19 3.5q20 0 35 -15t15 -36q0 -24 -18 -40.5t-45 -16.5q-33 0 -59 29t-26 69q0 50 33.5 91.5t92.5 61.5zM392 720v-19q-47 -27 -63.5 -49.5t-16.5 -53.5q0 -13 5 -21q5 -6 11 -6q2 0 16 3.5t22 3.5 q21 0 35.5 -14t14.5 -35q0 -24 -19 -42t-46 -18q-34 0 -59 28.5t-25 69.5q0 52 33 93.5t92 59.5z" />
<glyph unicode="&#x201d;" horiz-adv-x="444" d="M56 473v21q47 27 63.5 49.5t16.5 53.5q0 13 -5 20q-4 7 -11 7t-16 -4t-21 -4q-21 0 -35.5 15t-14.5 36q0 24 18.5 41t45.5 17q33 0 59 -28t26 -70q0 -52 -33.5 -94t-92.5 -60zM255 473v21q80 41 80 100q0 16 -5 24q-4 6 -11 6q-8 0 -17 -4t-19 -4q-20 0 -35 15.5 t-15 36.5q0 23 18 40t44 17q34 0 60 -28.5t26 -69.5q0 -50 -33.5 -92t-92.5 -62z" />
<glyph unicode="&#x201e;" horiz-adv-x="444" d="M56 -152v21q47 27 63.5 49.5t16.5 53.5q0 13 -5 20q-4 7 -11 7t-16 -4t-21 -4q-21 0 -35.5 15t-14.5 36q0 24 18.5 41t45.5 17q33 0 59 -28t26 -70q0 -52 -33.5 -94t-92.5 -60zM255 -152v21q80 41 80 100q0 16 -5 24q-4 6 -11 6q-8 0 -17 -4t-19 -4q-20 0 -35 15.5 t-15 36.5q0 23 18 40t44 17q34 0 60 -28.5t26 -69.5q0 -50 -33.5 -92t-92.5 -62z" />
<glyph unicode="&#x2026;" horiz-adv-x="1000" d="M167 22q22 0 38 -16t16 -38q0 -23 -16 -39t-38 -16q-23 0 -39 16t-16 39q0 22 16 38t39 16zM500 22q22 0 38 -16t16 -38q0 -23 -16 -39t-38 -16t-38 16t-16 39q0 22 16 38t38 16zM833 22q23 0 39 -16t16 -38q0 -23 -16 -39t-39 -16q-22 0 -38 16t-16 39q0 22 16 38t38 16 z" />
<glyph unicode="&#x202f;" horiz-adv-x="158" />
<glyph unicode="&#x2039;" horiz-adv-x="333" d="M156 154l119 -231h-28l-189 231l189 229h28z" />
<glyph unicode="&#x203a;" horiz-adv-x="333" d="M175 153l-119 230h28l193 -230l-193 -230h-28z" />
<glyph unicode="&#x205f;" horiz-adv-x="198" />
<glyph unicode="&#x20ac;" d="M425 325l-11 -38h-281q-1 -14 -1 -41h269l-11 -38h-257q5 -105 41 -172q44 -80 117 -80q66 0 109 34q24 18 67 76l15 -10q-42 -66 -76 -94q-56 -47 -135 -47q-112 0 -173 94q-51 77 -60 199h-49l11 38h36v8q0 21 1 33h-48l11 38h41q16 115 79 191q72 87 184 87 q84 0 166 -43v-146h-19q-13 157 -147 157q-77 0 -122 -82q-36 -65 -46 -164h289z" />
<glyph unicode="&#x2122;" horiz-adv-x="980" d="M15 491l10 98h355l11 -98h-16q-5 36 -26.5 52.5t-68.5 16.5h-37v-283q0 -41 9.5 -52t42.5 -12v-18h-183v18q33 3 40 13q9 10 9 51v283h-37q-45 0 -65 -15t-28 -54h-16zM425 589h139l134 -279l129 279h136v-18q-26 0 -36 -5q-18 -10 -18 -61v-228q0 -41 9 -52 q10 -11 45 -12v-18h-194v18q43 5 49 11.5t9 51.5v240l-150 -321h-15l-151 317v-235q0 -35 4 -44q11 -20 42 -20h17v-18h-149v18q6 1 15.5 2t12 0.5t8.5 2t7 2.5t4.5 5t3.5 7t1.5 11t1.5 14.5t1 19.5v227q0 38 -4 47q-8 20 -51 20v18z" />
</font>
</defs>
</svg>
