<?xml version="1.0" standalone="no"?>
<!DOCTYPE svg PUBLIC "-//W3C//DTD SVG 1.1//EN" "http://www.w3.org/Graphics/SVG/1.1/DTD/svg11.dtd" >
<svg xmlns="http://www.w3.org/2000/svg">
<metadata>
This is a custom SVG webfont generated by Font Squirrel.
Designer    : Georgian by BOG-InfoTech
Foundry     : Stepan Roh and DejaVu fonts team
Foundry URL : http://dejavu.sourceforge.net
</metadata>
<defs>
<font id="webfontau2IQZsR" horiz-adv-x="636" >
<font-face units-per-em="1000" ascent="760" descent="-240" />
<missing-glyph horiz-adv-x="318" />
<glyph unicode=" "  horiz-adv-x="318" />
<glyph unicode="&#x09;" horiz-adv-x="318" />
<glyph unicode="&#xa0;" horiz-adv-x="318" />
<glyph unicode="!" horiz-adv-x="401" d="M151 124v-124h99v124h-99zM161 729v-320v-174h89v174v320h-89z" />
<glyph unicode="&#x22;" horiz-adv-x="460" d="M179 729h-83v-271h83v271zM364 729h-83v-271h83v271z" />
<glyph unicode="#" horiz-adv-x="838" d="M511 440l-40 -163h-143l41 163h142zM438 718h-79l-50 -203h-176v-75h157l-41 -163h-172v-75h154l-51 -202h79l50 202h143l-50 -202h78l51 202h174v75h-155l40 163h171v75h-152l50 203h-78l-51 -203h-143z" />
<glyph unicode="$" d="M338 -147v148q104 8 159.5 55.5t55.5 129.5q0 76 -52 120t-163 61v209q90 -4 171 -45v85q-81 27 -171 30v114h-49v-115q-100 -7 -153 -53t-53 -125q0 -74 49 -116t157 -59v-223q-108 1 -206 64v-88q104 -44 206 -45v-147h49zM289 376q-61 11 -88.5 34t-27.5 65 q0 43 29.5 69t86.5 32v-200zM338 282q64 -11 94.5 -36.5t30.5 -68.5q0 -89 -125 -106v211z" />
<glyph unicode="%" horiz-adv-x="950" d="M727 321q42 0 66 -36.5t24 -100.5q0 -63 -24.5 -99.5t-65.5 -36.5q-43 0 -67 36.5t-24 99.5q0 64 24 100.5t67 36.5zM727 383q-78 0 -123 -54q-46 -53 -46 -145t46 -145q44 -53 123 -53q78 0 122 53q46 53 46 145q0 91 -45 145q-46 54 -123 54zM223 680q42 0 66.5 -36.5 t24.5 -99.5q0 -64 -24 -100.5t-67 -36.5q-42 0 -66 36.5t-24 100.5q0 63 24 99.5t66 36.5zM664 742l-456 -756h78l456 756h-78zM223 742q-77 0 -122 -54q-46 -52 -46 -144t45 -146q45 -53 123 -53t123 53q46 53 46 146q0 92 -46 144q-46 54 -123 54z" />
<glyph unicode="&#x26;" horiz-adv-x="780" d="M243 392l259 -265q-69 -62 -163 -62q-77 0 -130 47q-52 48 -52 119q0 84 86 161zM312 447q-44 45 -59 71q-14 26 -14 50q0 43 32 70q31 27 83 27q67 0 153 -47v89q-84 35 -163 35q-90 0 -144 -48t-54 -127q0 -58 48 -121q-131 -97 -131 -221q0 -105 75 -172 q73 -67 192 -67q125 0 226 86l70 -72h123l-136 139q90 123 102 252h-91q-6 -112 -64 -198z" />
<glyph unicode="'" horiz-adv-x="275" d="M179 729h-83v-271h83v271z" />
<glyph unicode="(" horiz-adv-x="390" d="M310 759h-78q-146 -229 -146 -445q0 -218 146 -446h78q-129 224 -129 446q0 223 129 445z" />
<glyph unicode=")" horiz-adv-x="390" d="M80 759q129 -222 129 -445q0 -225 -129 -446h78q146 228 146 446q0 216 -146 445h-78z" />
<glyph unicode="*" horiz-adv-x="500" d="M470 609l-28 48l-164 -99v184h-56v-184l-164 99l-28 -48l175 -95l-175 -95l28 -48l164 99v-184h56v184l164 -99l28 48l-175 95z" />
<glyph unicode="+" horiz-adv-x="838" d="M460 627h-82v-272h-272v-83h272v-272h82v272h272v83h-272v272z" />
<glyph unicode="," horiz-adv-x="318" d="M117 124v-84l-40 -156h63l80 156v84h-103z" />
<glyph unicode="-" horiz-adv-x="361" d="M49 314v-80h263v80h-263z" />
<glyph unicode="." horiz-adv-x="318" d="M107 124v-124h103v124h-103z" />
<glyph unicode="/" horiz-adv-x="337" d="M254 729l-254 -822h83l254 822h-83z" />
<glyph unicode="0" d="M318 664q153 0 153 -300t-153 -300t-153 300t153 300zM318 742q-123 0 -187.5 -97t-64.5 -281t64.5 -281t187.5 -97q122 0 187 97t65 281t-65 281t-187 97z" />
<glyph unicode="1" d="M124 83v-83h420v83h-161v646h-99l-174 -35v-90l175 35v-556h-161z" />
<glyph unicode="2" d="M192 83q238 242 262 271q45 55 61 95q17 42 17 85q0 95 -67 152q-68 56 -181 56q-86 0 -206 -48v-100q115 65 208 65q66 0 106 -36q41 -38 41 -95q0 -36 -19 -73q-18 -36 -66 -90q-21 -25 -122 -126l-153 -156v-83h463v83h-344z" />
<glyph unicode="3" d="M406 393q64 16 98.5 58t34.5 102q0 87 -65 138q-66 51 -178 51q-87 0 -198 -31v-88q107 36 189 36q74 0 114 -30t40 -86q0 -55 -38.5 -84t-111.5 -29h-89v-81h85q81 0 126 -36t45 -101q0 -70 -48.5 -106.5t-141.5 -36.5q-110 0 -192 48v-95q104 -36 195 -36q139 0 211 59 q74 59 74 167q0 71 -40 118q-39 48 -110 63z" />
<glyph unicode="4" d="M378 643v-389h-249zM352 729l-303 -462v-95h329v-172h98v172h104v82h-104v475h-124z" />
<glyph unicode="5" d="M108 729v-366q79 36 159 36q85 0 134 -45q49 -43 49 -120q0 -76 -49 -121q-48 -44 -134 -44q-103 0 -190 47v-99q100 -31 192 -31q135 0 207 65q73 65 73 183q0 115 -71 181q-73 67 -194 67q-42 0 -86 -15v179h297v83h-387z" />
<glyph unicode="6" d="M330 404q66 0 105 -46q39 -45 39 -124q0 -78 -39 -125q-39 -45 -105 -45q-68 0 -105 45q-39 47 -39 125q0 79 39 124q37 46 105 46zM526 713q-84 29 -154 29q-138 0 -220 -103q-82 -101 -82 -275q0 -186 67 -281q66 -97 193 -97q110 0 177 68q66 68 66 180q0 116 -64 181 q-64 67 -173 67q-108 0 -168 -88q15 265 208 265q73 0 150 -36v90z" />
<glyph unicode="7" d="M82 729v-83h350l-249 -646h103l265 687v42h-469z" />
<glyph unicode="8" d="M318 346q69 0 111 -37q40 -37 40 -104q0 -66 -40 -103q-41 -38 -111 -38t-111 38q-40 36 -40 103t40 104q42 37 111 37zM219 388q-70 -16 -111 -65q-40 -47 -40 -118q0 -106 64.5 -162.5t185.5 -56.5t185.5 56.5t64.5 162.5q0 71 -40 118q-41 49 -111 65q63 16 98.5 59.5 t35.5 105.5q0 88 -62 138q-63 51 -171 51q-110 0 -171 -51q-62 -49 -62 -138q0 -62 35.5 -105.5t98.5 -59.5zM183 544q0 57 35.5 88.5t99.5 31.5q63 0 99 -31.5t36 -88.5t-36 -88.5t-99 -31.5q-64 0 -99.5 31.5t-35.5 88.5z" />
<glyph unicode="9" d="M110 15q84 -29 154 -29q139 0 220 102q82 103 82 276q0 184 -66.5 281t-193.5 97q-110 0 -177 -68q-66 -68 -66 -180q0 -115 63 -181q64 -66 174 -66q109 0 168 87q-15 -265 -208 -265q-73 0 -150 36v-90zM306 324q-66 0 -105 46q-39 45 -39 124t39 124q39 46 105 46 t105 -46q39 -45 39 -124t-39 -124q-39 -46 -105 -46z" />
<glyph unicode=":" horiz-adv-x="337" d="M117 124v-124h103v124h-103zM117 517v-124h103v124h-103z" />
<glyph unicode=";" horiz-adv-x="337" d="M117 517v-124h103v124h-103zM117 124v-84l-40 -156h63l80 156v84h-103z" />
<glyph unicode="&#x3c;" horiz-adv-x="838" d="M732 492v89l-626 -227v-81l626 -227v89l-504 178z" />
<glyph unicode="=" horiz-adv-x="838" d="M106 454v-82h626v82h-626zM106 255v-83h626v83h-626z" />
<glyph unicode="&#x3e;" horiz-adv-x="838" d="M106 492l503 -179l-503 -178v-89l626 227v81l-626 227v-89z" />
<glyph unicode="?" horiz-adv-x="531" d="M191 124v-124h99v124h-99zM287 196v60q0 44 6 65q7 22 46 61l43 42q45 44 61 75q18 33 18 71q0 77 -55 125q-53 47 -144 47q-99 0 -190 -55v-92q96 67 173 67q53 0 85 -27t32 -70q0 -46 -53 -96l-44 -43q-43 -42 -57 -74q-14 -29 -14 -81l-3 -75h96z" />
<glyph unicode="@" horiz-adv-x="1000" d="M372 262q0 68 35 109q34 40 94 40q58 0 95 -40q35 -41 35 -109t-35 -109q-34 -40 -94 -40t-95 39q-35 41 -35 110zM638 116v-75q136 3 215 77q77 74 77 203q0 122 -75 220q-59 77 -149 121q-88 42 -192 42q-190 0 -320 -128q-128 -126 -128 -311q0 -189 128 -314 t313 -125q153 0 279 98l-44 54q-105 -82 -235 -82q-159 0 -263 104q-109 106 -109 265q0 95 43 175q44 82 120 131q95 63 217 63q177 0 283 -132q62 -79 62 -183q0 -86 -41 -141t-111 -65v359h-70v-64q-56 74 -155 74q-83 0 -136 -61q-53 -62 -53 -159t52 -158t137 -61 q98 0 155 73z" />
<glyph unicode="A" horiz-adv-x="684" d="M342 632l134 -363h-268zM286 729l-278 -729h104l66 187h329l66 -187h103l-278 729h-112z" />
<glyph unicode="B" horiz-adv-x="686" d="M197 348h158q80 0 118 -32.5t38 -100.5q0 -134 -156 -134h-158v267zM197 648h146q143 0 143 -110t-143 -110h-146v220zM98 729v-729h262q121 0 189 53q66 54 66 151q0 74 -40 123.5t-113 65.5q123 20 123 156q0 86 -61 133t-174 47h-252z" />
<glyph unicode="C" horiz-adv-x="698" d="M644 673q-102 69 -232 69q-165 0 -261 -101q-95 -103 -95 -277t95 -277q96 -101 261 -101q129 0 232 70v103q-98 -92 -226 -92q-125 0 -191.5 76.5t-66.5 220.5q0 145 66.5 221t191.5 76q128 0 226 -92v104z" />
<glyph unicode="D" horiz-adv-x="770" d="M197 648h119q150 0 221 -68q70 -70 70 -215q0 -146 -70 -216q-71 -68 -221 -68h-119v567zM98 729v-729h203q212 0 310 88q100 88 100 277q0 187 -99 276q-98 88 -311 88h-203z" />
<glyph unicode="E" horiz-adv-x="632" d="M98 729v-729h470v83h-371v264h347v83h-347v216h362v83h-461z" />
<glyph unicode="F" horiz-adv-x="575" d="M98 729v-729h99v348h289v83h-289v215h320v83h-419z" />
<glyph unicode="G" horiz-adv-x="775" d="M595 104q-64 -37 -167 -37q-268 0 -268 297t268 297q136 0 246 -93v105q-110 69 -254 69q-171 0 -268 -100q-96 -99 -96 -278q0 -178 96 -279q98 -99 268 -99q158 0 273 82v313h-259v-81h161v-196z" />
<glyph unicode="H" horiz-adv-x="752" d="M98 729v-729h99v347h358v-347h99v729h-99v-299h-358v299h-99z" />
<glyph unicode="I" horiz-adv-x="295" d="M98 729v-729h99v729h-99z" />
<glyph unicode="J" horiz-adv-x="295" d="M98 729v-678q0 -95 -27 -132q-27 -36 -92 -36h-31v-83h38q110 0 160 59q51 60 51 192v678h-99z" />
<glyph unicode="K" horiz-adv-x="656" d="M98 729v-729h99v351l350 -351h130l-388 389l362 340h-127l-327 -308v308h-99z" />
<glyph unicode="L" horiz-adv-x="557" d="M98 729v-729h454v83h-355v646h-99z" />
<glyph unicode="M" horiz-adv-x="863" d="M98 729v-729h96v640l188 -500h99l188 500v-640h96v729h-147l-187 -496l-186 496h-147z" />
<glyph unicode="N" horiz-adv-x="748" d="M98 729v-729h96v610l323 -610h133v729h-96v-610l-323 610h-133z" />
<glyph unicode="O" horiz-adv-x="787" d="M394 662q107 0 170 -80t63 -218t-63 -218t-170 -80q-106 0 -171 80q-63 80 -63 218t63 218q65 80 171 80zM394 742q-155 0 -246 -103q-92 -103 -92 -275t92 -276q92 -102 246 -102t245 102q92 104 92 276t-92 275q-91 103 -245 103z" />
<glyph unicode="P" horiz-adv-x="603" d="M197 648h124q69 0 106.5 -35.5t37.5 -101.5t-37.5 -101.5t-106.5 -35.5h-124v274zM98 729v-729h99v293h124q248 0 248 218q0 107 -63 162.5t-185 55.5h-223z" />
<glyph unicode="Q" horiz-adv-x="787" d="M394 662q107 0 170 -80t63 -218t-63 -218t-170 -80q-106 0 -171 80q-63 80 -63 218t63 218q65 80 171 80zM532 13q97 43 148 133q51 92 51 218q0 172 -92 275q-91 103 -245 103q-155 0 -246 -103q-92 -103 -92 -275t92 -276q92 -102 246 -102q20 0 41 2l108 -117h119z " />
<glyph unicode="R" horiz-adv-x="695" d="M444 342q61 17 93 62.5t32 114.5q0 210 -248 210h-223v-729h99v308h107q59 0 92 -24q36 -25 71 -97l93 -187h106l-100 199q-61 123 -122 143zM197 648h124q144 0 144 -129q0 -130 -144 -130h-124v259z" />
<glyph unicode="S" horiz-adv-x="635" d="M535 705q-110 37 -213 37q-121 0 -188 -55q-68 -56 -68 -153q0 -83 49 -130q50 -47 160 -69l60 -12q75 -15 108 -45t33 -84q0 -62 -45.5 -95t-130.5 -33q-110 0 -231 68v-102q123 -46 231 -46q137 0 208 54.5t71 160.5q0 89 -52.5 142t-162.5 74l-60 12q-80 15 -110 40 q-29 24 -29 73q0 58 44 89t124 31q92 0 202 -53v96z" />
<glyph unicode="T" horiz-adv-x="611" d="M-3 729v-83h259v-646h99v646h259v83h-617z" />
<glyph unicode="U" horiz-adv-x="732" d="M87 729v-455q0 -142 70.5 -215t208.5 -73t208.5 73t70.5 215v455h-99v-443q0 -117 -43 -169q-42 -51 -137 -51t-137 51q-43 52 -43 169v443h-99z" />
<glyph unicode="V" horiz-adv-x="684" d="M286 0h112l278 729h-103l-231 -614l-231 614h-103z" />
<glyph unicode="W" horiz-adv-x="989" d="M33 729l183 -729h124l155 633l154 -633h124l183 729h-100l-153 -616l-153 616h-111l-153 -616l-153 616h-100z" />
<glyph unicode="X" horiz-adv-x="685" d="M63 729l227 -340l-260 -389h106l207 310l205 -310h106l-250 379l234 350h-106l-182 -271l-181 271h-106z" />
<glyph unicode="Y" horiz-adv-x="611" d="M-2 729l258 -382v-347h99v347l258 382h-106l-201 -300l-202 300h-106z" />
<glyph unicode="Z" horiz-adv-x="685" d="M56 729v-83h450l-461 -571v-75h595v83h-472l461 571v75h-573z" />
<glyph unicode="[" horiz-adv-x="390" d="M86 760v-892h207v70h-117v752h117v70h-207z" />
<glyph unicode="\" horiz-adv-x="337" d="M83 729h-83l254 -822h83z" />
<glyph unicode="]" horiz-adv-x="390" d="M304 760h-207v-70h117v-752h-117v-70h207v892z" />
<glyph unicode="^" horiz-adv-x="838" d="M467 729h-96l-265 -272h98l215 193l215 -193h98z" />
<glyph unicode="_" horiz-adv-x="500" d="M510 -166h-520v-70h520v70z" />
<glyph unicode="`" horiz-adv-x="500" d="M179 800h-96l159 -183h75z" />
<glyph unicode="a" horiz-adv-x="613" d="M343 275h89v-20q0 -89 -45 -141q-45 -53 -120 -53q-54 0 -85.5 28t-31.5 76q0 59 42 85q41 25 151 25zM522 312q0 248 -236 248q-86 0 -186 -38v-83q82 45 177 45q74 0 114.5 -34t40.5 -96v-9h-126q-246 0 -246 -186q0 -79 49 -126q50 -47 134 -47q129 0 189 97v-83h90 v312z" />
<glyph unicode="b" horiz-adv-x="635" d="M487 273q0 -98 -41 -156q-41 -56 -112 -56t-112 56q-41 58 -41 156q0 99 41 155q40 57 112 57t112 -57q41 -56 41 -155zM181 464v296h-90v-760h90v82q56 -96 175 -96q99 0 162 79q62 80 62 208t-62 208q-63 79 -162 79q-119 0 -175 -96z" />
<glyph unicode="c" horiz-adv-x="550" d="M488 526q-74 34 -158 34q-128 0 -202 -77q-73 -78 -73 -210q0 -131 73 -210q72 -77 196 -77q86 0 164 35v83q-76 -42 -154 -42q-87 0 -136 55q-48 55 -48 156t48 155q48 56 136 56q78 0 154 -42v84z" />
<glyph unicode="d" horiz-adv-x="635" d="M454 464q-55 96 -175 96q-99 0 -162 -79q-62 -80 -62 -208t62 -208q63 -79 162 -79q120 0 175 96v-82h90v760h-90v-296zM148 273q0 98 40 155q42 57 113 57t112 -57q41 -56 41 -155q0 -98 -41 -156q-41 -56 -112 -56t-113 56q-40 58 -40 156z" />
<glyph unicode="e" horiz-adv-x="615" d="M562 296q0 122 -64 193q-65 71 -175 71q-123 0 -196 -79q-72 -78 -72 -213q0 -128 76 -206q77 -76 208 -76q106 0 202 42v85q-96 -51 -197 -51q-89 0 -139 48.5t-56 141.5h413v44zM472 322h-320q6 76 52 119q44 43 120 43q66 0 107 -44t41 -118z" />
<glyph unicode="f" horiz-adv-x="352" d="M371 760h-85q-92 0 -134.5 -42t-42.5 -133v-38h-86v-70h86v-477h90v477h148v70h-148v48q0 49 19 71q18 19 67 19h86v75z" />
<glyph unicode="g" horiz-adv-x="635" d="M454 280q0 -96 -40 -151q-40 -54 -113 -54q-72 0 -112.5 54t-40.5 151q0 99 40 151q40 54 113 54t113 -54t40 -151zM544 68v479h-90v-83q-56 96 -175 96q-101 0 -162 -77q-62 -77 -62 -203t62 -203q61 -77 162 -77q119 0 175 96v-44q0 -186 -176 -186q-80 0 -157 42v-87 q77 -29 171 -29q127 0 189.5 68t62.5 208z" />
<glyph unicode="h" horiz-adv-x="634" d="M549 330q0 113 -48.5 171.5t-142.5 58.5q-113 0 -177 -98v298h-90v-760h90v309q0 81 42 127q43 46 115 46q121 0 121 -155v-327h90v330z" />
<glyph unicode="i" horiz-adv-x="278" d="M94 547v-547h90v547h-90zM94 760v-114h90v114h-90z" />
<glyph unicode="j" horiz-adv-x="278" d="M94 547v-557q0 -74 -18 -98q-20 -24 -70 -24h-24v-76h34q89 0 128 47q40 46 40 151v557h-90zM94 760v-114h90v114h-90z" />
<glyph unicode="k" horiz-adv-x="579" d="M91 760v-760h90v267l278 -267h117l-302 291l290 256h-115l-268 -236v449h-90z" />
<glyph unicode="l" horiz-adv-x="278" d="M94 760v-760h90v760h-90z" />
<glyph unicode="m" horiz-adv-x="974" d="M520 442q-41 118 -163 118q-116 0 -176 -98v85h-90v-547h90v309q0 79 41 126t109 47q58 0 86 -37.5t28 -117.5v-327h90v309q0 80 41 127q41 46 110 46q113 0 113 -155v-327h90v330q0 110 -46.5 170t-131.5 60q-125 0 -191 -118z" />
<glyph unicode="n" horiz-adv-x="634" d="M549 330q0 113 -48.5 171.5t-142.5 58.5q-113 0 -177 -98v85h-90v-547h90v309q0 81 42 127q43 46 115 46q121 0 121 -155v-327h90v330z" />
<glyph unicode="o" horiz-adv-x="612" d="M306 484q72 0 114 -57t42 -154q0 -99 -42 -154q-42 -57 -114 -57q-73 0 -115 56q-41 58 -41 155q0 99 42 154q42 57 114 57zM306 560q-118 0 -184 -76q-67 -76 -67 -211t67 -211q66 -76 184 -76t184 76q67 76 67 211t-67 211q-66 76 -184 76z" />
<glyph unicode="p" horiz-adv-x="635" d="M181 82q56 -96 175 -96q99 0 162 79q62 80 62 208t-62 208q-63 79 -162 79q-119 0 -175 -96v83h-90v-755h90v290zM487 273q0 -98 -41 -156q-41 -56 -112 -56t-112 56q-41 58 -41 156q0 99 41 155q40 57 112 57t112 -57q41 -56 41 -155z" />
<glyph unicode="q" horiz-adv-x="635" d="M148 273q0 98 40 155q42 57 113 57t112 -57q41 -56 41 -155q0 -98 -41 -156q-41 -56 -112 -56t-113 56q-40 58 -40 156zM454 82v-290h90v755h-90v-83q-55 96 -175 96q-99 0 -162 -79q-62 -80 -62 -208t62 -208q63 -79 162 -79q120 0 175 96z" />
<glyph unicode="r" horiz-adv-x="411" d="M411 463v92q-23 5 -46 5q-128 0 -184 -98v85h-90v-547h90v288q0 93 40.5 142.5t117.5 49.5q44 0 72 -17z" />
<glyph unicode="s" horiz-adv-x="521" d="M443 531q-75 29 -175 29q-101 0 -155.5 -42t-54.5 -119q0 -64 37 -100t121 -54l31 -7q83 -18 108 -38q25 -19 25 -56q0 -40 -34 -61.5t-98 -21.5q-94 0 -194 52v-93q105 -34 192 -34q107 0 166 44q60 45 60 121q0 66 -40 104q-40 37 -136 58l-31 7q-73 17 -96 34 q-24 16 -24 49q0 82 134 82q87 0 164 -39v85z" />
<glyph unicode="t" horiz-adv-x="392" d="M183 702h-90v-155h-66v-70h66v-297q0 -104 39 -141q40 -39 144 -39h92v75h-92q-56 0 -75 19q-18 20 -18 86v297h185v70h-185v155z" />
<glyph unicode="u" horiz-adv-x="634" d="M85 216q0 -113 48.5 -171.5t143.5 -58.5q112 0 176 98v-84h90v547h-90v-310q0 -81 -42 -127q-43 -46 -115 -46q-121 0 -121 155v328h-90v-331z" />
<glyph unicode="v" horiz-adv-x="592" d="M30 547l205 -547h122l205 547h-95l-171 -459l-171 459h-95z" />
<glyph unicode="w" horiz-adv-x="818" d="M42 547l143 -547h106l118 448l118 -448h106l143 547h-90l-112 -427l-112 427h-106l-112 -427l-112 427h-90z" />
<glyph unicode="x" horiz-adv-x="592" d="M549 547h-106l-145 -195l-145 195h-106l194 -261l-212 -286h106l159 215l159 -215h106l-208 281z" />
<glyph unicode="y" horiz-adv-x="592" d="M322 -51l240 598h-95l-171 -428l-171 428h-95l221 -538l-16 -41q-26 -67 -46 -83q-19 -18 -57 -18h-53v-75h72q61 0 97 30q36 31 74 127z" />
<glyph unicode="z" horiz-adv-x="525" d="M55 547v-72h326l-338 -393v-82h439v72h-338l338 393v82h-427z" />
<glyph unicode="{" d="M511 -93h-33q-68 0 -90 22q-21 21 -21 90v121q0 77 -22 111q-21 34 -76 48q53 12 76 47q22 34 22 111v121q0 69 21 90q21 22 90 22h33v70h-30q-121 0 -163 -36q-41 -36 -41 -144v-117q0 -73 -27 -101q-25 -28 -95 -28h-30v-70h30q70 0 95 -28q27 -28 27 -102v-117 q0 -108 41 -144q42 -36 163 -36h30v70z" />
<glyph unicode="|" horiz-adv-x="337" d="M210 764h-83v-1000h83v1000z" />
<glyph unicode="}" d="M125 -93v-70h31q122 0 162 36q41 36 41 144v117q0 73 26 102q27 28 96 28h30v70h-30q-69 0 -96 28q-26 29 -26 101v117q0 108 -41 144q-40 36 -162 36h-31v-70h34q68 0 89 -22q21 -21 21 -90v-121q0 -77 22 -111q23 -35 76 -47q-53 -13 -76 -48q-22 -34 -22 -111v-121 q0 -70 -21 -91t-89 -21h-34z" />
<glyph unicode="~" horiz-adv-x="838" d="M732 399q-95 -78 -175 -78q-46 0 -121 30q-2 1 -6 2t-5 2q-2 0 -8 3q-72 29 -125 29q-90 0 -186 -72v-87q92 78 175 78q46 0 121 -30q2 -1 6 -2.5t5 -1.5t3.5 -1t4.5 -2q72 -29 125 -29q90 0 186 72v87z" />
<glyph unicode="&#xa2;" d="M331 64q-70 7 -112 63q-40 55 -40 146q0 90 40 145t112 64v-418zM517 526q-66 30 -136 33v140h-50v-140q-116 -10 -183 -85q-64 -74 -64 -201q0 -125 64 -201q66 -75 183 -84v-141h50v139q75 6 136 35v83q-71 -38 -136 -42v422q67 -3 136 -42v84z" />
<glyph unicode="&#xa3;" d="M538 713q-78 29 -142 29q-113 0 -165.5 -59t-52.5 -187v-116h-97v-70h97v-227h-115v-83h485v83h-272v227h191v70h-191v105q0 104 28 141q29 38 101 38q60 0 133 -40v89z" />
<glyph unicode="&#xa5;" d="M569 222v60h-203v25l41 76h162v60h-129l155 286h-93l-184 -342l-185 342h-93l155 -286h-129v-60h162l41 -76v-25h-203v-60h203v-222h98v222h202z" />
<glyph unicode="&#xa8;" horiz-adv-x="500" d="M296 758v-99h99v99h-99zM105 758v-99h99v99h-99z" />
<glyph unicode="&#xa9;" horiz-adv-x="1000" d="M500 725q-149 0 -256 -107q-106 -106 -106 -256q0 -149 106 -255q107 -107 256 -107t256 107q106 106 106 255q0 150 -106 256q-107 107 -256 107zM500 675q129 0 221 -92q91 -93 91 -221q0 -129 -91 -220q-92 -92 -221 -92q-128 0 -220 92q-93 93 -93 220q0 128 93 221 q92 92 220 92zM646 555q-63 27 -134 27q-105 0 -167 -59q-61 -61 -61 -161q0 -102 61 -161q61 -60 167 -60q71 0 134 28v62q-63 -32 -123 -32q-76 0 -117.5 42.5t-41.5 120.5t40 119q42 43 114 43q65 0 128 -32v63z" />
<glyph unicode="&#xab;" horiz-adv-x="612" d="M518 517l-229 -204v-40l229 -204v93l-147 131l147 131v93zM306 517l-229 -204v-40l229 -204v93l-147 131l147 131v93z" />
<glyph unicode="&#xad;" horiz-adv-x="361" d="M49 314v-80h263v80h-263z" />
<glyph unicode="&#xae;" horiz-adv-x="1000" d="M500 675q129 0 221 -92q91 -93 91 -221q0 -129 -91 -220q-92 -92 -221 -92q-128 0 -220 92q-93 93 -93 220q0 128 93 221q92 92 220 92zM500 725q-149 0 -256 -107q-106 -106 -106 -256q0 -149 106 -255q107 -107 256 -107t256 107q106 106 106 255q0 150 -106 256 q-107 107 -256 107zM487 523q53 0 74.5 -15.5t21.5 -52.5q0 -35 -21 -52q-22 -15 -75 -15h-60v135h60zM490 573h-139v-408h76v174h32q25 0 44 -13q18 -12 47 -59l63 -102h84l-67 109q-45 70 -67 77q47 8 72.5 35.5t25.5 69.5q0 117 -171 117z" />
<glyph unicode="&#xb4;" horiz-adv-x="500" d="M318 800l-137 -184h75l159 184h-97z" />
<glyph unicode="&#xb8;" horiz-adv-x="500" d="M291 0h-58q43 -59 43 -87q0 -46 -58 -46q-44 0 -76 16v-64q42 -12 86 -12q116 0 116 88q0 45 -53 105z" />
<glyph unicode="&#xbb;" horiz-adv-x="612" d="M94 517v-93l147 -131l-147 -131v-93l229 204v40zM306 517v-93l147 -131l-147 -131v-93l229 204v40z" />
<glyph unicode="&#x2c6;" horiz-adv-x="500" d="M214 800l-120 -184h68l88 120l88 -120h68l-120 184h-72z" />
<glyph unicode="&#x2da;" horiz-adv-x="500" d="M324 744q0 -30 -21 -53q-21 -21 -53 -21t-53 21t-21 53q0 31 21 52q21 22 53 22t53 -22q21 -21 21 -52zM384 744q0 56 -39 95t-95 39t-95 -39t-39 -95t39 -95t95 -39t95 39t39 95z" />
<glyph unicode="&#x2dc;" horiz-adv-x="500" d="M248 669q33 -30 68 -30q44 0 69 36t26 102h-61q-1 -76 -37 -76q-13 0 -33 19l-28 27q-33 30 -68 30q-44 0 -69 -36t-26 -102h61q1 76 37 76q13 0 33 -19z" />
<glyph unicode="&#x410;" horiz-adv-x="684" d="M342 632l134 -363h-268zM286 729l-278 -729h104l66 187h329l66 -187h103l-278 729h-112z" />
<glyph unicode="&#x411;" horiz-adv-x="686" d="M511 214q0 -68 -38 -100q-39 -33 -118 -33h-158v267h158q79 0 118 -33q38 -32 38 -101zM511 729h-413v-729h262q124 0 189.5 53.5t65.5 160.5t-65.5 161t-189.5 54h-163v219h314v81z" />
<glyph unicode="&#x412;" horiz-adv-x="686" d="M197 348h158q80 0 118 -32.5t38 -100.5q0 -134 -156 -134h-158v267zM197 648h146q143 0 143 -110t-143 -110h-146v220zM98 729v-729h262q121 0 189 53q66 54 66 151q0 74 -40 123.5t-113 65.5q123 20 123 156q0 86 -61 133t-174 47h-252z" />
<glyph unicode="&#x413;" horiz-adv-x="557" d="M98 0h99v646h355v83h-454v-729z" />
<glyph unicode="&#x414;" horiz-adv-x="776" d="M223 83q21 28 30 54q65 165 65 405v104h237v-563h-332zM74 83h-50v-291h98v208h531v-208h98v291h-98v646h-433v-138q0 -275 -57 -419q-25 -61 -89 -89z" />
<glyph unicode="&#x415;" horiz-adv-x="632" d="M98 729v-729h470v83h-371v264h347v83h-347v216h362v83h-461z" />
<glyph unicode="&#x416;" horiz-adv-x="863" d="M481 430v299h-99v-299h-72l-151 299h-106l171 -340l-195 -389h106l174 347h73v-347h99v347h73l175 -347h105l-195 389l171 340h-106l-150 -299h-73z" />
<glyph unicode="&#x417;" d="M406 393q64 16 98.5 58t34.5 102q0 87 -65 138q-66 51 -178 51q-87 0 -198 -31v-88q107 36 189 36q74 0 114 -30t40 -86q0 -55 -38.5 -84t-111.5 -29h-89v-81h85q81 0 126 -36t45 -101q0 -70 -48.5 -106.5t-141.5 -36.5q-110 0 -192 48v-95q104 -36 195 -36q139 0 211 59 q74 59 74 167q0 71 -40 118q-39 48 -110 63z" />
<glyph unicode="&#x418;" horiz-adv-x="748" d="M650 729h-133l-323 -610v610h-96v-729h133l323 610v-610h96v729z" />
<glyph unicode="&#x419;" horiz-adv-x="748" d="M217 928q11 -118 153 -118t153 118h-58q-15 -54 -95 -54q-83 0 -95 54h-58zM650 729h-133l-323 -610v610h-96v-729h133l323 610v-610h96v729z" />
<glyph unicode="&#x41a;" horiz-adv-x="656" d="M98 729v-729h99v351l350 -351h130l-388 389l362 340h-127l-327 -308v308h-99z" />
<glyph unicode="&#x41b;" horiz-adv-x="752" d="M26 -14q180 27 227 151q65 169 65 405v104h237v-646h98v729h-433v-138q0 -275 -57 -419q-33 -81 -137 -104v-82z" />
<glyph unicode="&#x41c;" horiz-adv-x="863" d="M98 729v-729h96v640l188 -500h99l188 500v-640h96v729h-147l-187 -496l-186 496h-147z" />
<glyph unicode="&#x41d;" horiz-adv-x="752" d="M98 729v-729h99v347h358v-347h99v729h-99v-299h-358v299h-99z" />
<glyph unicode="&#x41e;" horiz-adv-x="787" d="M394 662q107 0 170 -80t63 -218t-63 -218t-170 -80q-106 0 -171 80q-63 80 -63 218t63 218q65 80 171 80zM394 742q-155 0 -246 -103q-92 -103 -92 -275t92 -276q92 -102 246 -102t245 102q92 104 92 276t-92 275q-91 103 -245 103z" />
<glyph unicode="&#x41f;" horiz-adv-x="752" d="M654 729h-556v-729h99v646h358v-646h99v729z" />
<glyph unicode="&#x420;" horiz-adv-x="603" d="M197 648h124q69 0 106.5 -35.5t37.5 -101.5t-37.5 -101.5t-106.5 -35.5h-124v274zM98 729v-729h99v293h124q248 0 248 218q0 107 -63 162.5t-185 55.5h-223z" />
<glyph unicode="&#x421;" horiz-adv-x="698" d="M644 673q-102 69 -232 69q-165 0 -261 -101q-95 -103 -95 -277t95 -277q96 -101 261 -101q129 0 232 70v103q-98 -92 -226 -92q-125 0 -191.5 76.5t-66.5 220.5q0 145 66.5 221t191.5 76q128 0 226 -92v104z" />
<glyph unicode="&#x422;" horiz-adv-x="611" d="M-3 729v-83h259v-646h99v646h259v83h-617z" />
<glyph unicode="&#x423;" horiz-adv-x="609" d="M320 88l272 641h-106l-182 -428l-181 428h-106l234 -552l-22 -52q-2 -5 -11 -20q-24 -36 -92 -36h-31v-83h38q110 0 161 59q13 17 26 43z" />
<glyph unicode="&#x424;" horiz-adv-x="787" d="M345 569v-410q-75 11 -121 52q-64 57 -64 153t64 153q46 41 121 52zM443 159v410q75 -11 121 -52q63 -57 63 -153t-63 -153q-46 -41 -121 -52zM345 77v-77h98v77q118 10 196 76q92 80 92 211t-92 211q-78 66 -196 76v78h-98v-78q-120 -10 -197 -76q-92 -80 -92 -211 t92 -211q79 -66 197 -76z" />
<glyph unicode="&#x425;" horiz-adv-x="685" d="M63 729l227 -340l-260 -389h106l207 310l205 -310h106l-250 379l234 350h-106l-182 -271l-181 271h-106z" />
<glyph unicode="&#x426;" horiz-adv-x="776" d="M654 0v-208h98v291h-98v646h-99v-646h-358v646h-99v-729h556z" />
<glyph unicode="&#x427;" horiz-adv-x="686" d="M488 0h99v729h-99v-299h-183q-121 0 -121 155v144h-99v-152q0 -117 54 -172q55 -58 146 -58h203v-347z" />
<glyph unicode="&#x428;" horiz-adv-x="1003" d="M550 83v608h-99v-608h-254v646h-99v-729h805v729h-99v-646h-254z" />
<glyph unicode="&#x429;" horiz-adv-x="1025" d="M903 0v-208h98v291h-98v646h-99v-646h-254v608h-99v-608h-254v646h-99v-729h805z" />
<glyph unicode="&#x42a;" horiz-adv-x="833" d="M245 0h261q125 0 190.5 53.5t65.5 160.5t-65.5 161t-190.5 54h-163v300h-319v-83h221v-646zM658 214q0 -67 -39 -100t-118 -33h-158v267h158q81 0 118 -33q39 -33 39 -101z" />
<glyph unicode="&#x42b;" horiz-adv-x="882" d="M511 214q0 -68 -38 -100q-39 -33 -118 -33h-158v267h158q79 0 118 -33q38 -32 38 -101zM98 729v-729h262q124 0 189.5 53.5t65.5 160.5t-65.5 161t-189.5 54h-163v300h-99zM685 729v-729h99v729h-99z" />
<glyph unicode="&#x42c;" horiz-adv-x="686" d="M511 214q0 -68 -38 -100q-39 -33 -118 -33h-158v267h158q79 0 118 -33q38 -32 38 -101zM98 729v-729h262q124 0 189.5 53.5t65.5 160.5t-65.5 161t-189.5 54h-163v300h-99z" />
<glyph unicode="&#x42d;" horiz-adv-x="698" d="M538 347q-3 -133 -66 -203q-67 -77 -192 -77q-62 0 -120 23q-57 23 -106 69v-103q55 -36 110 -53q60 -17 122 -17q165 0 261 101q95 103 95 277t-95 277q-96 101 -261 101q-63 0 -123 -17q-60 -19 -109 -52v-104q49 46 106 69q58 23 120 23q125 0 192 -76q50 -59 62 -155 h-337v-83h341z" />
<glyph unicode="&#x42e;" horiz-adv-x="1031" d="M638 662q107 0 170 -80t63 -218t-63 -218t-170 -80q-108 0 -171 80t-63 218t63 218t171 80zM303 430h-101v299h-99v-729h99v347h98q5 -163 92 -259q92 -102 246 -102t245 103q92 103 92 275t-92 276q-91 102 -245 102t-246 -102q-74 -81 -89 -210z" />
<glyph unicode="&#x42f;" horiz-adv-x="695" d="M251 342q-62 -20 -122 -143l-100 -199h106l93 187q36 73 70 97t93 24h107v-308h99v729h-223q-248 0 -248 -210q0 -142 125 -177zM498 648v-259h-124q-144 0 -144 130q0 129 144 129h124z" />
<glyph unicode="&#x430;" horiz-adv-x="613" d="M343 275h89v-20q0 -89 -45 -141q-45 -53 -120 -53q-54 0 -85.5 28t-31.5 76q0 59 42 85q41 25 151 25zM522 312q0 248 -236 248q-86 0 -186 -38v-83q82 45 177 45q74 0 114.5 -34t40.5 -96v-9h-126q-246 0 -246 -186q0 -79 49 -126q50 -47 134 -47q129 0 189 97v-83h90 v312z" />
<glyph unicode="&#x431;" horiz-adv-x="612" d="M490 633v75q-58 34 -166 34q-216 0 -216 -133q0 -68 77 -107q-38 -18 -63 -49q-67 -82 -67 -180q0 -133 67 -211q67 -76 184 -76q118 0 184 76q67 76 67 206q0 135 -69 201q-56 55 -159 73q-129 24 -129 68q0 57 124 57q117 0 166 -34zM252 478q23 -7 57 -10 q63 -6 108 -56q45 -46 45 -144q0 -94 -42 -149q-42 -57 -114 -57q-73 0 -115 56q-41 56 -41 155t42 155q26 34 60 50z" />
<glyph unicode="&#x432;" horiz-adv-x="586" d="M181 251h128q61 0 95 -22q31 -20 31 -66q0 -44 -31 -66q-32 -22 -95 -22h-128v176zM181 472h118q57 0 87 -18q28 -18 28 -53q0 -36 -28 -54q-30 -18 -87 -18h-118v143zM91 547v-547h222q105 0 161 40q56 41 56 113q0 56 -34 93t-96 49q51 7 78 37q26 29 26 80 q0 65 -51.5 100t-147.5 35h-214z" />
<glyph unicode="&#x433;" horiz-adv-x="491" d="M91 0h90v464h296v83h-386v-547z" />
<glyph unicode="&#x434;" horiz-adv-x="672" d="M206 75q5 18 14 26q58 109 58 306v65h190v-397h-262zM76 75h-52v-283h90v208h444v-208h89v283h-89v472h-370v-104q0 -203 -48 -307q-19 -42 -64 -61z" />
<glyph unicode="&#x435;" horiz-adv-x="615" d="M562 296q0 122 -64 193q-65 71 -175 71q-123 0 -196 -79q-72 -78 -72 -213q0 -128 76 -206q77 -76 208 -76q106 0 202 42v85q-96 -51 -197 -51q-89 0 -139 48.5t-56 141.5h413v44zM472 322h-320q6 76 52 119q44 43 120 43q66 0 107 -44t41 -118z" />
<glyph unicode="&#x436;" horiz-adv-x="733" d="M412 329v218h-90v-218h-55l-126 218h-96l145 -255l-166 -292h97l146 254h55v-254h90v254h55l146 -254h96l-166 292l145 255h-95l-126 -218h-55z" />
<glyph unicode="&#x437;" horiz-adv-x="541" d="M345 295q55 12 84 43q29 32 29 77q0 69 -56 107q-54 39 -151 39q-72 0 -168 -24v-81q52 15 87 20q39 6 74 6q58 0 92 -22t34 -54q0 -34 -33 -56q-33 -21 -89 -21h-76v-75h72q68 0 102 -25q38 -26 38 -70q0 -45 -41 -71q-42 -27 -115 -27q-50 0 -87 8q-47 12 -76 28v-84 q46 -14 85 -20q39 -7 80 -7q117 0 180 44.5t63 128.5q0 52 -34 88t-94 48z" />
<glyph unicode="&#x438;" horiz-adv-x="657" d="M562 547h-115l-263 -438v438h-90v-547h115l264 439v-439h89v547z" />
<glyph unicode="&#x439;" horiz-adv-x="657" d="M175 760q11 -140 153 -140t153 140h-58q-12 -73 -95 -73q-85 0 -95 73h-58zM562 547h-115l-263 -438v438h-90v-547h115l264 439v-439h89v547z" />
<glyph unicode="&#x43a;" horiz-adv-x="604" d="M93 547v-547h91v267l277 -267h118l-303 291l290 256h-114l-268 -236v236h-91z" />
<glyph unicode="&#x43b;" horiz-adv-x="639" d="M22 -14q150 13 197 115q57 127 57 306v65h190v-472h90v547h-369v-104q0 -203 -48 -307q-29 -63 -117 -75v-75z" />
<glyph unicode="&#x43c;" horiz-adv-x="754" d="M94 547v-547h87v461l152 -356h89l151 356v-461h87v547h-127l-156 -366l-155 366h-128z" />
<glyph unicode="&#x43d;" horiz-adv-x="661" d="M94 547v-547h90v252h293v-252h89v547h-89v-225h-293v225h-90z" />
<glyph unicode="&#x43e;" horiz-adv-x="612" d="M306 484q72 0 114 -57t42 -154q0 -99 -42 -154q-42 -57 -114 -57q-73 0 -115 56q-41 58 -41 155q0 99 42 154q42 57 114 57zM306 560q-118 0 -184 -76q-67 -76 -67 -211t67 -211q66 -76 184 -76t184 76q67 76 67 211t-67 211q-66 76 -184 76z" />
<glyph unicode="&#x43f;" horiz-adv-x="660" d="M566 547h-472v-547h90v472h293v-472h89v547z" />
<glyph unicode="&#x440;" horiz-adv-x="635" d="M181 82q56 -96 175 -96q99 0 162 79q62 80 62 208t-62 208q-63 79 -162 79q-119 0 -175 -96v83h-90v-755h90v290zM487 273q0 -98 -41 -156q-41 -56 -112 -56t-112 56q-41 58 -41 156q0 99 41 155q40 57 112 57t112 -57q41 -56 41 -155z" />
<glyph unicode="&#x441;" horiz-adv-x="550" d="M488 526q-74 34 -158 34q-128 0 -202 -77q-73 -78 -73 -210q0 -131 73 -210q72 -77 196 -77q86 0 164 35v83q-76 -42 -154 -42q-87 0 -136 55q-48 55 -48 156t48 155q48 56 136 56q78 0 154 -42v84z" />
<glyph unicode="&#x442;" horiz-adv-x="529" d="M2 547v-83h218v-464h89v464h217v83h-524z" />
<glyph unicode="&#x443;" horiz-adv-x="592" d="M322 -51l240 598h-95l-171 -428l-171 428h-95l221 -538l-16 -41q-26 -67 -46 -83q-19 -18 -57 -18h-53v-75h72q61 0 97 30q36 31 74 127z" />
<glyph unicode="&#x444;" horiz-adv-x="917" d="M150 273q0 102 34 158q33 53 97 53t99 -53q33 -54 33 -158t-33 -158q-35 -53 -99 -53t-97 53q-34 56 -34 158zM413 -208h90v277q23 -41 59 -62q38 -21 87 -21q99 0 156 76q56 76 56 209q0 135 -56 212t-156 77q-49 0 -86 -21q-36 -21 -60 -62v252h-90v-252q-23 41 -59 62 q-38 21 -87 21q-100 0 -155 -77q-57 -77 -57 -212q0 -134 57 -209q57 -76 155 -76q50 0 87 22q36 21 59 62v-278zM767 273q0 -104 -33 -158q-33 -53 -98 -53q-133 0 -133 211q0 102 34 158q35 53 99 53q65 0 98 -53q33 -54 33 -158z" />
<glyph unicode="&#x445;" horiz-adv-x="592" d="M549 547h-106l-145 -195l-145 195h-106l194 -261l-212 -286h106l159 215l159 -215h106l-208 281z" />
<glyph unicode="&#x446;" horiz-adv-x="681" d="M566 0v-208h90v283h-90v472h-89v-472h-293v472h-90v-547h472z" />
<glyph unicode="&#x447;" horiz-adv-x="591" d="M410 0h90v547h-90v-218h-145q-50 0 -77 29q-25 28 -25 86v103h-90v-114q0 -90 45 -132q50 -47 125 -47h167v-254z" />
<glyph unicode="&#x448;" horiz-adv-x="873" d="M481 75v443h-90v-443h-207v472h-90v-547h684v547h-90v-472h-207z" />
<glyph unicode="&#x449;" horiz-adv-x="893" d="M778 0v-208h90v283h-90v472h-90v-472h-207v443h-90v-443h-207v472h-90v-547h684z" />
<glyph unicode="&#x44a;" horiz-adv-x="703" d="M552 162q0 -44 -31 -65q-31 -22 -95 -22h-128v176h128q64 0 95 -22q31 -21 31 -67zM208 472v-472h222q105 0 161 40q56 41 56 122t-56 122q-60 42 -161 42h-132v221h-277v-75h187z" />
<glyph unicode="&#x44b;" horiz-adv-x="765" d="M438 162q0 -44 -30 -65q-32 -22 -96 -22h-128v176h128q64 0 96 -22q30 -21 30 -67zM94 547v-547h222q105 0 161 40q57 40 57 122t-57 122q-60 42 -161 42h-132v221h-90zM586 547v-547h90v547h-90z" />
<glyph unicode="&#x44c;" horiz-adv-x="589" d="M438 162q0 -44 -30 -65q-32 -22 -96 -22h-128v176h128q64 0 96 -22q30 -21 30 -67zM94 547v-547h222q105 0 161 40q57 40 57 122t-57 122q-60 42 -161 42h-132v221h-90z" />
<glyph unicode="&#x44d;" horiz-adv-x="615" d="M135 460q24 8 36 11q52 13 100 13q89 0 139 -48q46 -44 55 -128h-330v-70h330q-9 -84 -55 -128q-50 -48 -139 -48q-54 0 -100 13q-47 11 -97 38v-85q98 -42 202 -42q132 0 207 76q77 76 77 211t-77 211q-75 76 -207 76q-56 0 -103 -11q-5 -1 -38 -9v-80z" />
<glyph unicode="&#x44e;" horiz-adv-x="812" d="M507 484q72 0 114 -57q42 -59 42 -154q0 -96 -42 -154q-42 -57 -114 -57q-73 0 -115 56q-41 56 -41 155q0 98 42 155q41 56 114 56zM259 329h-75v218h-90v-547h90v254h72q5 -121 67 -192q66 -76 184 -76q117 0 184 76q67 78 67 211t-67 211q-67 76 -184 76 q-118 0 -184 -76q-55 -62 -64 -155z" />
<glyph unicode="&#x44f;" horiz-adv-x="602" d="M213 256q-25 -7 -52 -34q-29 -30 -52 -73l-85 -149h96l79 140q29 54 59 73q28 18 76 18h83v-231h90v547h-189q-106 0 -159 -39q-52 -41 -52 -119q0 -105 106 -133zM417 471v-164h-97q-60 0 -89 21q-31 21 -31 61q0 41 31 62q32 20 89 20h97z" />
<glyph unicode="&#x10d0;" horiz-adv-x="503" d="M454 241q0 137 -157 200q-45 21 -56 84h-88q21 -125 139 -161q74 -47 74 -121v-4q0 -156 -112 -156q-113 0 -113 142v2l14 65l-85 20l-21 -85q2 -227 203 -227h1q201 0 201 241z" />
<glyph unicode="&#x10d1;" horiz-adv-x="503" d="M454 256q0 218 -144 255v75q-24 106 -84 118q-62 14 -62 54h-89q0 -90 70 -103q69 -12 76 -72v-72q-170 -27 -172 -255q1 -256 205 -256h2q198 0 198 256zM367 256v-2q0 -171 -110 -171h-2q-116 0 -116 173v3q0 184 118 184q110 0 110 -187z" />
<glyph unicode="&#x10d2;" horiz-adv-x="552" d="M503 21v3q0 184 -156 212q79 51 79 131v1q0 141 -168 141q-171 0 -171 -128l16 -74l78 23l-7 43v1q0 55 85 55q78 0 78 -57q0 -83 -73 -123q-215 -32 -215 -228q0 -229 228 -229q226 0 226 229zM417 21q0 -146 -138 -146h-6q-133 0 -133 146q0 153 139 153 q138 -2 138 -153z" />
<glyph unicode="&#x10d3;" horiz-adv-x="785" d="M98 -77l42 -64q54 50 134 50q172 -9 239 -112h92q-51 146 -309 190q-155 119 -155 276v4q0 159 92 159h1q102 0 102 -169q0 -247 203 -247h3q193 0 194 247q0 254 -194 254q-121 0 -166 -104q-45 104 -145 104q-182 0 -182 -246q2 -156 147 -291l-5 -15q-57 -5 -93 -36z M648 262q0 -169 -106 -169q-121 0 -121 164q0 169 120 169h1q106 0 106 -164z" />
<glyph unicode="&#x10d4;" horiz-adv-x="511" d="M457 -6v319q0 197 -191 198q-194 0 -194 -171q2 -153 139 -177v88q-51 13 -51 89v3q0 82 106 82h1q99 0 99 -110v-2v-324v-3q0 -111 -112 -111h-2q-112 0 -112 114l15 60l-86 23l-20 -83q1 -195 205 -195q203 0 203 200z" />
<glyph unicode="&#x10d5;" horiz-adv-x="503" d="M454 -27v48q0 111 -98 138q96 48 96 153v2q0 198 -191 198q-192 0 -192 -179l35 -95l74 30l-19 65q2 96 102 96t100 -115v-1q0 -117 -89 -117h-1h-50v-69h50q95 0 95 -102v-3v-50q0 -97 -114 -97q-113 0 -113 102l10 60l-85 25l-15 -85q0 -182 201 -182h2q202 0 202 178z " />
<glyph unicode="&#x10d6;" horiz-adv-x="516" d="M467 251q0 183 -149 236q53 40 53 125q0 145 -167 145q-165 0 -165 -146v-3q0 -127 98 -160q-77 -40 -79 -197q0 -251 204 -251q203 0 205 251zM374 251q0 -168 -112 -168q-113 0 -115 168v2q0 163 113 163h2q112 0 112 -165zM287 587q0 -107 -75 -107q-91 0 -91 105v2 q0 91 81 91q85 -2 85 -91z" />
<glyph unicode="&#x10d7;" horiz-adv-x="797" d="M749 247q0 263 -189 264q-114 0 -150 -105q-38 105 -159 105q-202 0 -202 -255q0 -256 201 -256q207 0 207 247q0 178 102 178h2q97 0 97 -171q0 -135 -119 -171v-83q209 41 210 247zM366 247q-2 -164 -115 -164q-112 0 -112 171t112 171q115 0 115 -178z" />
<glyph unicode="&#x10d8;" horiz-adv-x="506" d="M457 256q0 255 -203 255q-205 0 -205 -255q2 -214 135 -266l21 57q-64 85 -64 209q0 169 113 169h1q111 0 111 -167v-5q0 -120 -65 -206l21 -57q135 52 135 266z" />
<glyph unicode="&#x10d9;" horiz-adv-x="504" d="M455 -10v20v1q0 127 -125 150q110 56 110 161v2q0 177 -262 177h-2v-85h8q169 0 169 -93q0 -115 -102 -116h-51v-84h51q113 0 113 -113v-20q0 -115 -113 -115q-112 0 -112 114v1l5 41h-86l-9 -41q0 -196 202 -196q204 0 204 196z" />
<glyph unicode="&#x10da;" horiz-adv-x="1058" d="M175 -66l53 -66q51 66 147 66q334 -25 334 -137h86q-9 182 -338 205q-289 30 -316 263v2q0 154 100 154h1q108 0 109 -114l4 -121h71l5 121q0 119 95 119h3q98 0 98 -119l5 -121h72l5 121v2q0 112 104 112h2q103 0 103 -149q0 -102 -93 -160v-82q182 66 184 242v1 q0 233 -194 233q-100 0 -145 -91q-42 94 -142 96q-91 0 -138 -94q-45 89 -148 89q-193 -1 -193 -241q20 -210 211 -279v-5q-53 -17 -85 -47z" />
<glyph unicode="&#x10db;" horiz-adv-x="511" d="M457 256v306q0 195 -203 195q-185 0 -185 -174h91q0 90 94 90q117 0 117 -111v-112q-41 61 -117 61q-205 0 -205 -255q0 -254 203 -256q205 1 205 256zM371 256q0 -173 -117 -173q-115 0 -115 174v2q0 166 115 166h1q116 0 116 -167v-2z" />
<glyph unicode="&#x10dc;" horiz-adv-x="509" d="M460 256q0 254 -203 255q-71 0 -117 -73v155q0 80 67 81h196v83h-196q-153 0 -153 -163v-1v-337q0 -254 203 -256q203 0 203 256zM370 256q0 -173 -113 -173q-117 0 -117 173q0 169 112 169q118 0 118 -167v-2z" />
<glyph unicode="&#x10dd;" horiz-adv-x="782" d="M733 259v2q0 251 -188 251q-107 0 -154 -97q-38 97 -152 97q-190 0 -190 -253q0 -193 213 -264v83q-121 55 -121 178v6q0 162 98 162q112 0 112 -125l4 -123h72l4 123v1q0 124 112 124q99 0 100 -165v-1q0 -130 -124 -180v-83q214 66 214 263v1z" />
<glyph unicode="&#x10de;" horiz-adv-x="506" d="M457 241q0 140 -111 180q91 56 91 134q0 132 -148 153q-114 20 -117 49h-89q0 -86 148 -107q116 -9 116 -94q0 -93 -86 -93h-59v-85h50q114 0 114 -135v-6q0 -154 -114 -154q-111 0 -111 119v1v49h-92v-50q0 -202 203 -202q205 0 205 241z" />
<glyph unicode="&#x10df;" horiz-adv-x="506" d="M453 -9v533l-365 -84v-54q110 -68 110 -150v-3q0 -67 -159 -67l1 -80q233 1 235 149q-1 75 -79 148l168 52v-443q0 -117 -124 -117q-112 0 -112 96v2h-87q0 -178 200 -178h2q207 0 210 196z" />
<glyph unicode="&#x10e0;" horiz-adv-x="792" d="M744 277q0 234 -196 234q-107 -2 -152 -95q-45 93 -151 95l-62 -26q100 142 407 217l-30 76q-315 -79 -413 -216t-98 -285q1 -228 218 -282v83q-126 52 -126 199q0 148 108 148q106 0 106 -133v-2l6 -116h70l6 116q0 135 108 135h1q106 0 106 -148t-128 -199v-83 q219 54 220 282z" />
<glyph unicode="&#x10e1;" horiz-adv-x="508" d="M459 251q0 73 -70 140q-36 35 -36 62q0 28 35 51l-54 53q-64 -40 -64 -111q0 -31 29 -57q69 -61 69 -138q0 -168 -110 -168h-1q-114 0 -114 167v1v492h-89v-492q0 -251 204 -251q201 0 201 251z" />
<glyph unicode="&#x10e2;" horiz-adv-x="653" d="M49 151q0 -357 280 -357h2q273 0 273 354q0 330 -242 339l3 166h-72l3 -164q-247 -12 -247 -338zM141 151v2q0 231 155 270l-3 -253h72l-3 254q154 -41 154 -273q0 -276 -188 -276q-187 0 -187 272v4z" />
<glyph unicode="&#x10e3;" horiz-adv-x="525" d="M472 -11v325q-2 198 -145 198h-1q-68 0 -109 -93q-29 93 -154 93h-1h-23v-83h24q113 0 113 -96l5 -99h74l5 99q0 89 60 91q63 0 65 -110v-325q0 -114 -114 -114q-115 0 -115 114l14 117l-86 14l-13 -131q0 -196 200 -196q199 0 201 196z" />
<glyph unicode="&#x10e4;" horiz-adv-x="812" d="M725 -33v56q0 91 -89 117q98 59 98 173q0 199 -177 199q-110 0 -147 -103q-40 103 -160 103q-201 0 -201 -248q0 -252 204 -257q204 1 204 247q0 170 100 170q84 0 84 -109q0 -140 -57 -140h-1h-36v-73h36q48 0 48 -81v-54q0 -94 -161 -94q-147 1 -147 65h-91 q0 -145 238 -145q255 0 255 174zM366 254q-2 -163 -116 -163q-109 0 -109 169v4q0 160 109 160q114 0 116 -170z" />
<glyph unicode="&#x10e5;" horiz-adv-x="511" d="M457 -11v754h-91v-295q-40 63 -111 63h-1q-185 0 -185 -183v-2q0 -145 142 -165v83h-1q-50 0 -50 81v3q0 97 94 97q112 0 112 -158v-278q0 -114 -114 -114h-2q-109 0 -109 114l9 53l-86 9l-15 -62q0 -195 203 -195q205 0 205 195z" />
<glyph unicode="&#x10e6;" horiz-adv-x="782" d="M133 -92l50 -65q32 41 65 52q24 3 48 3t57 -5q135 -21 138 -101h87q-1 150 -224 174q-215 101 -215 286q0 174 103 174q109 0 109 -119l4 -123h72l4 123q0 119 107 119q104 0 105 -139q0 -136 -103 -189v-83q193 81 193 271v1q0 223 -198 224q-98 0 -143 -100 q-46 100 -151 100q-191 0 -192 -259q2 -181 167 -293l-15 -8q-46 -17 -68 -43z" />
<glyph unicode="&#x10e7;" horiz-adv-x="511" d="M457 -13v505h-91v-255q0 -102 -114 -105q-113 0 -113 155v2q0 122 103 186l-64 37q-129 -83 -129 -225q0 -237 201 -237h2q86 8 114 63v-124q0 -113 -114 -115q-112 1 -112 113v2h-91q0 -196 203 -196q205 0 205 194z" />
<glyph unicode="&#x10e8;" horiz-adv-x="508" d="M455 598v-342q0 -256 -193 -256q-213 0 -213 256q0 240 202 240q88 -10 118 -68v170q0 74 -69 76q-68 -1 -68 -84v-16h-67v17q0 81 -81 83h-27v83h32q74 0 116 -104q27 104 106 104q144 0 144 -159zM373 256q-2 155 -122 155q-112 0 -112 -155v-2q0 -171 122 -171h1 q109 0 111 173z" />
<glyph unicode="&#x10e9;" horiz-adv-x="508" d="M357 465q36 65 36 139v3q0 150 -173 150q-166 0 -166 -173v-1v-583h91v257q0 145 114 147q110 0 110 -137v-3q0 -158 -97 -264l90 -10q97 110 97 277q0 143 -102 198zM313 598q0 -67 -13 -118q-116 0 -155 -59v156q0 94 77 97q91 -2 91 -75v-1z" />
<glyph unicode="&#x10ea;" horiz-adv-x="566" d="M503 315q-2 80 -67 102q-44 24 -44 83v11h-89l-1 -16q0 -78 61 -101q51 -27 54 -81q0 -114 -70 -114h-71v-67h75h1q78 0 78 -119v-2q0 -134 -143 -136h-1q-146 0 -146 184v2v155q0 200 52 275l-84 20q-58 -109 -59 -325v-125q0 -267 238 -267q229 0 231 201 q0 137 -99 173q84 48 84 147z" />
<glyph unicode="&#x10eb;" horiz-adv-x="511" d="M457 252v491h-86v-288q-33 56 -119 56q-203 0 -203 -262q0 -249 203 -249q205 0 205 250v2zM371 252q0 -169 -118 -169h-1q-113 0 -113 166q0 177 110 177q122 0 122 -174z" />
<glyph unicode="&#x10ec;" horiz-adv-x="508" d="M54 598v-342q0 -256 193 -256q212 0 212 256q0 240 -202 240q-93 -10 -117 -73v175q0 76 68 76t68 -84v-16h67v17q2 83 81 83h28v83h-33q-75 0 -109 -91q-33 91 -113 91q-143 0 -143 -159zM136 256q0 155 121 155q113 0 113 -153v-2q0 -173 -123 -173q-111 0 -111 173z " />
<glyph unicode="&#x10ed;" horiz-adv-x="506" d="M454 -10q-12 86 -65 118q-52 31 -64 91v37q40 27 40 69h92v79h-90q-1 41 -41 65v294h-82v-252l-37 4q-143 0 -143 -151v-3q0 -149 137 -149l43 9q9 -73 57 -114q50 -17 66 -97v-1q0 -114 -113 -114q-114 0 -114 112v2l10 42l-86 6l-15 -47q0 -196 205 -196q200 0 200 196 zM149 343v2q0 73 68 73h2q78 0 78 -73v-3q0 -77 -80 -77h-4q-64 0 -64 76v2z" />
<glyph unicode="&#x10ee;" horiz-adv-x="509" d="M460 256q0 254 -204 255q-61 0 -118 -73v305h-84v-487q0 -256 202 -256q204 0 204 256zM368 256q-2 -173 -112 -173q-118 0 -118 173q0 169 117 169h1q111 0 112 -169z" />
<glyph unicode="&#x10ef;" horiz-adv-x="508" d="M457 -10q0 95 -82 149q-71 48 -75 108v56l159 -75v86l-159 72v219h-81v-182l-160 63v-88l160 -59v-92q15 -106 83 -140q70 -33 70 -107q0 -125 -121 -125h-1q-110 0 -110 115l10 47l-77 44l-24 -91q0 -196 202 -196q206 0 206 196z" />
<glyph unicode="&#x10f0;" horiz-adv-x="511" d="M457 176q0 67 -77 118q77 33 77 95q0 67 -75 98q75 27 75 96q0 103 -114 115q-114 14 -114 59h-90q0 -98 113 -115q114 -15 114 -57q0 -64 -50 -64h-90v-75h86q54 0 54 -54v-5q0 -56 -54 -56h-86v-74h86h1q54 0 54 -86q0 -88 -115 -88q-113 0 -113 120v49h-90v-49 q0 -203 206 -203q202 0 202 176z" />
<glyph unicode="&#x2000;" horiz-adv-x="464" />
<glyph unicode="&#x2001;" horiz-adv-x="928" />
<glyph unicode="&#x2002;" horiz-adv-x="464" />
<glyph unicode="&#x2003;" horiz-adv-x="928" />
<glyph unicode="&#x2004;" horiz-adv-x="309" />
<glyph unicode="&#x2005;" horiz-adv-x="232" />
<glyph unicode="&#x2006;" horiz-adv-x="154" />
<glyph unicode="&#x2007;" horiz-adv-x="154" />
<glyph unicode="&#x2008;" horiz-adv-x="116" />
<glyph unicode="&#x2009;" horiz-adv-x="185" />
<glyph unicode="&#x200a;" horiz-adv-x="51" />
<glyph unicode="&#x2010;" horiz-adv-x="361" d="M49 314v-80h263v80h-263z" />
<glyph unicode="&#x2011;" horiz-adv-x="361" d="M49 314v-80h263v80h-263z" />
<glyph unicode="&#x2013;" horiz-adv-x="500" d="M0 309v-70h500v70h-500z" />
<glyph unicode="&#x2014;" horiz-adv-x="1000" d="M0 309v-70h1000v70h-1000z" />
<glyph unicode="&#x2018;" horiz-adv-x="318" d="M188 489v84l40 156h-63l-80 -156v-84h103z" />
<glyph unicode="&#x2019;" horiz-adv-x="318" d="M127 729v-74l-40 -156h63l80 156v74h-103z" />
<glyph unicode="&#x201a;" horiz-adv-x="318" d="M125 124v-84l-40 -156h63l80 156v84h-103z" />
<glyph unicode="&#x201c;" horiz-adv-x="518" d="M188 489v84l40 156h-63l-80 -156v-84h103zM388 489v84l40 156h-63l-80 -156v-84h103z" />
<glyph unicode="&#x201d;" horiz-adv-x="518" d="M125 729v-84l-40 -156h63l80 156v84h-103zM325 729v-84l-40 -156h63l80 156v84h-103z" />
<glyph unicode="&#x201e;" horiz-adv-x="518" d="M125 124v-84l-40 -156h63l80 156v84h-103zM325 124v-84l-40 -156h63l80 156v84h-103z" />
<glyph unicode="&#x2026;" horiz-adv-x="1000" d="M448 124v-124h104v124h-104zM781 124v-124h104v124h-104zM115 124v-124h104v124h-104z" />
<glyph unicode="&#x202f;" horiz-adv-x="185" />
<glyph unicode="&#x2039;" horiz-adv-x="400" d="M306 517l-229 -204v-40l229 -204v93l-147 131l147 131v93z" />
<glyph unicode="&#x203a;" horiz-adv-x="400" d="M94 517v-93l147 -131l-147 -131v-93l229 204v40z" />
<glyph unicode="&#x205f;" horiz-adv-x="232" />
<glyph unicode="&#x20ac;" d="M570 673q-86 69 -181 69q-116 0 -191 -71q-76 -71 -95 -196h-76l-27 -60h95q0 -7 -0.5 -23t-0.5 -28q0 -11 0.5 -27t0.5 -23h-68l-27 -60h103q19 -127 95 -197q74 -71 191 -71q95 0 181 70v103q-45 -51 -86 -73q-40 -22 -91 -22q-76 0 -125.5 49t-65.5 141h183l27 60 h-218q-1 16 -1 50q0 35 1 51h263l27 60h-282q16 91 65 140t126 49q51 0 91 -22q41 -22 86 -73v104z" />
<glyph unicode="&#x2122;" horiz-adv-x="1000" d="M536 729h-84v-282h56v236l99 -148h27l95 148v-236h55v282h-83l-80 -125zM397 729h-253v-46h98v-236h56v236h99v46z" />
<glyph horiz-adv-x="333" />
</font>
</defs>
</svg>
