<?xml version="1.0" standalone="no"?>
<!DOCTYPE svg PUBLIC "-//W3C//DTD SVG 1.1//EN" "http://www.w3.org/Graphics/SVG/1.1/DTD/svg11.dtd" >
<svg xmlns="http://www.w3.org/2000/svg">
<metadata></metadata>
<defs>
<font id="bpg_nino_mtavrulibold" horiz-adv-x="500" >
<font-face units-per-em="1000" ascent="800" descent="-200" />
<missing-glyph horiz-adv-x="195" />
<glyph unicode="&#xd;" horiz-adv-x="314" />
<glyph unicode=" "  horiz-adv-x="195" />
<glyph unicode="&#x09;" horiz-adv-x="195" />
<glyph unicode="&#xa0;" horiz-adv-x="195" />
<glyph unicode="!" horiz-adv-x="292" d="M97 56h113v110h-113v-110zM122 229h65l27 374v201h-120v-201z" />
<glyph unicode="&#x22;" horiz-adv-x="358" d="M246 586h53l24 121v108h-101v-107zM65 586h58l20 123v106h-101v-108z" />
<glyph unicode="#" horiz-adv-x="951" d="M794 455q23 0 37.5 -15.5t14.5 -36.5q0 -23 -13.5 -37.5t-38.5 -14.5q-21 0 -34.5 15t-13.5 38q0 20 14 35.5t34 15.5zM921 175h-251v-87h251v87zM794 542q-61 0 -96 -41t-35 -98q0 -61 35.5 -102t95.5 -41q64 0 100.5 40.5t36.5 101.5q0 57 -37 98.5t-100 41.5zM644 722 q15 0 28.5 -20t15.5 -41h90q-5 62 -45 105t-89 43t-86.5 -40.5t-37.5 -94.5v-409l-256 513h-181v-88h98v-498q0 -21 -11 -32.5t-29 -11.5q-13 0 -26 17t-16 43h-83q6 -62 42.5 -106.5t86.5 -44.5q52 0 87 41t35 94v383l258 -518h81v617q0 18 11 33t27 15z" />
<glyph unicode="$" horiz-adv-x="507" d="M341 290l-4 1q-8 4 -9 5q-7 4 -20 11.5t-19 10.5t-16 8.5t-13 7.5q-8 5 -26 15q-71 39 -93.5 60t-22.5 49q0 36 67 74q41 -29 92 -58q89 -55 104 -71q24 -30 24 -46q0 -38 -64 -67zM153 166l-92 -13q18 -81 72 -125t138 -44t136 44t52 104q0 61 -65 115q43 18 63 38 q35 39 35 88q0 72 -67 119q-59 39 -98 61q-117 61 -145 91q-15 14 -15 35q0 24 27.5 40.5t65.5 16.5q40 0 64 -20t36 -72l94 11q-39 160 -201 160q-77 0 -125.5 -41.5t-48.5 -100.5q0 -49 52 -100q-99 -42 -99 -122q0 -62 65 -121q26 -24 98 -62q123 -68 158 -103 q15 -17 15 -33q0 -27 -28 -47t-69 -20q-48 0 -76.5 24t-41.5 77z" />
<glyph unicode="%" horiz-adv-x="827" d="M211 735q84 0 84 -119q0 -129 -84 -129q-39 0 -62.5 29.5t-23.5 90.5q0 72 23 100t63 28zM628 353q38 0 61.5 -29.5t23.5 -91.5q0 -66 -23.5 -97.5t-62.5 -31.5q-37 0 -61 29t-24 92q0 129 86 129zM155 29h87l442 783h-85zM454 233q0 -103 46.5 -153.5t125.5 -50.5 q75 0 125.5 52.5t50.5 145.5t-50 147t-127 54q-81 0 -126 -56t-45 -139zM36 617q0 -101 47.5 -152.5t125.5 -51.5q75 0 124.5 52.5t49.5 146.5q0 96 -48.5 148t-128.5 52t-125 -55.5t-45 -139.5z" />
<glyph unicode="&#x26;" horiz-adv-x="708" d="M438 652q0 -61 -114 -126q-85 93 -85 128t32 60t70 25q39 0 68 -26t29 -61zM286 424l190 -208q-38 -41 -85.5 -63t-89.5 -22q-67 0 -112.5 46.5t-46.5 95.5q-1 45 31.5 75t111.5 75zM540 143l7 -7q65 -67 104 -93l68 72q-47 35 -104 99q-8 8 -11 12q-2 3 -6 7 q38 66 65 161l-92 24q-19 -63 -43 -112q-5 5 -19 20q-17 17 -27 28q-101 109 -107 116q159 90 159 184q0 66 -53.5 113.5t-136.5 47.5t-142.5 -49.5t-59.5 -119.5q0 -26 8.5 -48.5t17.5 -34.5t29 -35l9 -9q4 -5 12 -14.5t12 -14.5q-90 -45 -139 -101.5t-49 -118.5 q0 -93 73.5 -157.5t185.5 -64.5q123 0 232 102z" />
<glyph unicode="'" horiz-adv-x="182" d="M65 585h58l22 119v111h-102v-109z" />
<glyph unicode="(" horiz-adv-x="379" d="M278 -203h81q-181 278 -181 508q0 81 26 197q17 62 57 149q32 67 98 162h-81q-49 -62 -94.5 -135t-66.5 -128q-45 -120 -45 -245q0 -128 61 -272q51 -113 145 -236z" />
<glyph unicode=")" horiz-adv-x="379" d="M63 -201h83q80 97 147 234q58 119 58 274q0 127 -43 245q-50 118 -162 263h-80q82 -118 100 -163q34 -76 55 -148q25 -92 25 -197q0 -235 -183 -508z" />
<glyph unicode="*" horiz-adv-x="565" d="M315 597l9 80v9q0 47 -41 47q-42 0 -42 -47v-3v-7q2 -23 8 -67q0 -8 1 -11q-10 11 -31 37q-4 4 -10.5 12.5t-9.5 11.5q-1 1 -1 2q-18 22 -33 22h-5q-18 0 -26 -7q-16 -17 -16 -33q0 -23 24 -41q16 -14 50 -42q3 -3 11 -9l-79 9h-9q-48 0 -48 -42t47 -42h3q5 0 8 1 q52 4 78 7q-26 -21 -42 -34q-18 -15 -19 -16q-24 -19 -24 -41q0 -16 12 -28q11 -11 28 -11q21 0 41 23q6 8 18 22t17 21q15 18 16 19v-6l-1 -6q-6 -42 -8 -67v-7v-3q0 -48 42 -48q41 0 41 48v9l-6 53q0 4 -1 13t-1 13q39 -47 51 -62v1q16 -23 41 -23q17 0 27 10q12 12 12 31 v5q0 18 -24 35h1q-31 23 -62 50l2 -1h2q25 -3 75 -7q3 -1 10 -1q48 0 48 42t-49 42h-8q-10 -1 -30 -3.5t-30 -3.5q-7 0 -19 -2q5 4 8 6.5t4.5 4l2.5 2.5t4 3.5t7 6.5q5 4 16.5 13.5t18.5 14.5h-1q24 16 24 34v5q0 19 -11 30q-12 12 -30 12h-5q-17 0 -33 -22l-1 -2l-30 -36z " />
<glyph unicode="+" horiz-adv-x="515" d="M227 109h86v164h180v86h-180v164h-86v-164h-180v-86h180v-164z" />
<glyph unicode="," horiz-adv-x="265" d="M53 -80l43 -43q50 47 79 103t29 107q0 89 -71 89q-26 0 -46 -17t-20 -49q0 -25 16.5 -40.5t41.5 -17.5v-3q0 -47 -72 -129z" />
<glyph unicode="-" horiz-adv-x="379" d="M12 237h373v106h-373v-106z" />
<glyph unicode="." horiz-adv-x="278" d="M74 120q0 -27 19.5 -46.5t46.5 -19.5q26 0 45 18.5t19 47.5q0 27 -18.5 46t-45.5 19q-28 0 -47 -19.5t-19 -45.5z" />
<glyph unicode="/" horiz-adv-x="306" d="M-2 48h85l237 767h-82z" />
<glyph unicode="0" d="M250 148q-67 2 -106 75v-1q-39 71 -39 200q0 133 35 203q40 70 110 70q77 0 111 -70q33 -72 33 -203q0 -129 -39 -201q-40 -73 -105 -73zM250 56q128 0 181 90q54 93 54 276q0 189 -54 275v-1q-53 92 -181 92q-119 0 -177.5 -90t-58.5 -276q0 -187 58.5 -276.5 t177.5 -89.5z" />
<glyph unicode="1" horiz-adv-x="339" d="M169 56h90v732h-89q-1 -60 -17 -79q-18 -15 -93 -16v-92h109v-545z" />
<glyph unicode="2" d="M14 56h471v92h-339l275 275q64 62 64 143q0 106 -58 161v-1q-29 28 -79.5 45t-97.5 17q-127 0 -182 -82h1q-51 -70 -54 -151h89q7 61 38 97l-1 -1q41 44 109 44q72 0 109 -44q25 -29 25 -75q0 -47 -37 -84l-333 -349v-87z" />
<glyph unicode="3" horiz-adv-x="508" d="M251 467v-91q78 -4 115 -32q37 -29 37 -82q0 -67 -42 -90q-43 -24 -102 -24q-65 0 -106 38q-35 35 -42 112h-88q1 -119 68 -181q74 -61 168 -61q101 0 170 48q64 50 64 158q0 51 -25.5 93.5t-64.5 66.5q39 27 64.5 70t25.5 90q0 98 -66 152q-65 54 -168 54 q-124 0 -182 -82q-49 -72 -55 -151h89q9 64 38 96q38 44 110 44q68 0 108 -32l-1 1q37 -31 37 -82q0 -59 -39 -86q-32 -24 -113 -29z" />
<glyph unicode="4" d="M126 389l148 236v-236h-148zM274 56h89v238h122v95h-122v399h-86l-263 -404v-90h260v-238z" />
<glyph unicode="5" d="M14 777v-366l82 -38q22 42 61 62q45 20 93 20q64 0 105 -45q39 -40 39 -109q0 -70 -37 -113q-42 -40 -107 -40q-105 0 -155 94l-83 -35q27 -69 82 -110q57 -41 156 -41q108 0 171 69q64 72 64 176q0 109 -68 177q-68 70 -167 70q-83 0 -145 -47v185h357v91h-448z" />
<glyph unicode="6" d="M250 148q-60 0 -101 67q-41 65 -42 180q35 37 64 47q36 13 79 13q68 0 105 -39q39 -44 39 -115q0 -76 -40 -115q-39 -38 -104 -38zM250 56q101 0 168 70t67 175q0 106 -67 176q-69 71 -168 71q-77 0 -141 -40q10 91 41 137v-1q39 51 100 51q96 0 169 -70l63 49 q-46 57 -95 84q-58 30 -137 30q-114 0 -176 -96q-60 -95 -60 -270q0 -163 57 -266q53 -100 179 -100z" />
<glyph unicode="7" d="M11 56h107l357 625v87h-471v-93h359z" />
<glyph unicode="8" d="M250 468q-64 0 -94 33q-29 32 -29 81q0 48 33 80q30 33 90 33t91 -35q31 -34 31 -78q0 -51 -34 -83q-32 -31 -88 -31zM250 148q-67 0 -107 28q-38 25 -38 86t34 87t111 26q76 0 111 -28q33 -26 33 -85q0 -55 -38 -84.5t-106 -29.5zM250 56q100 0 168 60q67 60 67 146 q0 108 -92 169q70 63 70 151q0 99 -64 152q-66 54 -147 54q-92 0 -155 -52q-61 -52 -61 -154q0 -79 71 -150q-93 -59 -93 -170q0 -86 65 -146q67 -60 171 -60z" />
<glyph unicode="9" d="M250 695q60 0 98 -44q36 -40 36 -125q0 -72 -47 -107q-42 -30 -87 -30q-71 0 -106 39q-39 38 -39 114t41 113q39 40 104 40zM250 788q-101 0 -169 -70q-67 -70 -67 -176q0 -109 67 -177q71 -71 169 -71q72 0 146 73q-18 -124 -47 -168v1q-39 -52 -99 -52q-98 0 -168 73 l-62 -56q49 -54 92 -80q50 -29 138 -29q115 0 175 93.5t60 272.5q0 177 -56 264q-69 102 -179 102z" />
<glyph unicode=":" horiz-adv-x="278" d="M74 407q0 -26 19.5 -45.5t46.5 -19.5q26 0 45 19t19 46t-18.5 46t-45.5 19q-28 0 -47 -19t-19 -46zM74 121q0 -28 19.5 -47t46.5 -19q26 0 45 18.5t19 47.5q0 27 -18.5 45.5t-45.5 18.5t-46.5 -19t-19.5 -45z" />
<glyph unicode=";" horiz-adv-x="265" d="M67 405q0 -26 19.5 -45.5t46.5 -19.5q26 0 45 19t19 46t-18.5 46t-45.5 19t-46.5 -19t-19.5 -46zM53 -81l43 -42q50 47 79 102.5t29 106.5q0 90 -71 90q-26 0 -46 -17t-20 -50q0 -25 16.5 -40t41.5 -17v-3q0 -47 -72 -130z" />
<glyph unicode="&#x3c;" horiz-adv-x="515" d="M45 264l448 -172v90q-29 11 -204 77q-20 7 -60.5 23t-62.5 24l327 123v90l-448 -172v-83z" />
<glyph unicode="=" horiz-adv-x="515" d="M493 151v85h-446v-85h446zM493 334v86h-446v-86h446z" />
<glyph unicode="&#x3e;" horiz-adv-x="515" d="M493 264v85l-448 170v-91q30 -11 91.5 -33.5t69.5 -25.5q28 -10 83.5 -31t83.5 -32l-328 -124v-93z" />
<glyph unicode="?" horiz-adv-x="423" d="M218 192q-32 0 -51.5 -20t-19.5 -50q0 -29 19.5 -47.5t51.5 -18.5q30 0 47 18.5t17 47.5q0 30 -17 50t-47 20zM258 221v97q0 12 6.5 21t27.5 32q3 4 12 13q61 63 87 105t26 99q0 84 -53.5 149.5t-137.5 65.5q-77 0 -134.5 -52.5t-57.5 -125.5q0 -59 37 -102t98 -43 q105 0 105 94q0 29 -17 69h-48q6 -23 6 -49q0 -15 -14 -23.5t-32 -8.5q-22 0 -38.5 20t-16.5 43q0 37 36.5 71.5t75.5 34.5q48 0 80.5 -47.5t32.5 -95.5q0 -32 -21 -60.5t-65 -70.5q-42 -41 -62 -72t-20 -67v-97h87z" />
<glyph unicode="@" horiz-adv-x="814" d="M284 284q0 56 25 129q27 67 54 89q28 25 57 25q35 0 60 -35q26 -35 26 -102q0 -65 -23 -128h1q-27 -61 -61 -89q-32 -27 -57 -27q-28 0 -54 36q-28 40 -28 102zM557 54q91 0 168 99q89 119 89 273q0 107 -49 207q-49 94 -130 143.5t-182 49.5q-120 0 -212 -60 q-97 -64 -149 -186q-60 -126 -60 -280q0 -140 55 -248q56 -103 151 -159t224 -56q81 0 160 28q73 32 128 86q52 52 90 132h-95q-42 -71 -114 -112q-70 -38 -169 -38q-164 0 -257.5 98t-93.5 276q0 119 47 229q98 197 291 197q77 0 144 -39h-1q66 -41 105 -110v1 q37 -71 37 -157q0 -76 -29 -143q-17 -51 -65 -96q-38 -35 -56 -35q-8 0 -14 8t-6 18q0 9 14 76l60 348h-96q-1 -12 -8 -64q-58 81 -119 81q-39 0 -98 -38q-51 -41 -92 -123q-35 -85 -35 -170q0 -103 52 -177q42 -58 109 -58q61 0 119 68q6 -37 26.5 -53t60.5 -16z" />
<glyph unicode="A" horiz-adv-x="709" d="M248 329l107 286q15 -40 59 -154q14 -36 51 -132h-217zM44 52h98q34 88 70 183h286l69 -183h97l-265 701h-89z" />
<glyph unicode="B" d="M149 481v178h98q46 0 75 -26q27 -26 27 -64q0 -40 -26 -62q-31 -26 -76 -26h-98zM149 147v239h98q46 0 75 -28q27 -26 27 -92q0 -70 -27 -96q-23 -23 -70 -23h-103zM247 753h-194v-701h194q103 0 151 55.5t48 173.5q0 91 -77 151q77 53 77 124q0 85 -48 142 q-46 55 -151 55z" />
<glyph unicode="C" horiz-adv-x="615" d="M328 52q103 0 152 36q50 37 88 117l-82 33q-33 -61 -63 -74q-33 -17 -95 -17q-81 0 -129 76q-50 81 -50 179q0 103 50 181q49 76 129 76q100 0 158 -100l82 41q-37 73 -93 111q-61 42 -155 42q-118 0 -194 -104q-73 -102 -73 -247q0 -156 73 -252q77 -98 202 -98z" />
<glyph unicode="D" horiz-adv-x="589" d="M149 147v512h97q194 0 194 -257q0 -143 -58 -198q-57 -57 -136 -57h-97zM53 52h193q113 0 202 83q88 90 88 267q0 189 -84 269q-85 82 -206 82h-193v-701z" />
<glyph unicode="E" horiz-adv-x="537" d="M53 52h431v95h-335v209h228v94h-228v209h335v94h-431v-701z" />
<glyph unicode="F" horiz-adv-x="510" d="M53 52h96v304h228v94h-228v209h335v94h-431v-701z" />
<glyph unicode="G" horiz-adv-x="615" d="M365 52q49 0 103 24.5t93 66.5v257h-239v-94h147v-121q-47 -38 -103 -38q-121 0 -167 76q-50 80 -50 179q0 103 50 181q49 76 129 76q100 0 158 -100l82 41q-37 73 -93 111q-61 42 -155 42q-118 0 -194 -104q-73 -102 -73 -247q0 -152 73 -252q79 -98 239 -98z" />
<glyph unicode="H" horiz-adv-x="565" d="M53 52h95v304h268v-304h96v701h-96v-303h-268v303h-95v-701z" />
<glyph unicode="I" horiz-adv-x="202" d="M53 52h95v701h-95v-701z" />
<glyph unicode="J" horiz-adv-x="506" d="M254 52q88 0 144 50q55 50 55 148v503h-94v-503q0 -103 -105 -103q-102 0 -106 112h-96q6 -111 57 -155q60 -52 145 -52z" />
<glyph unicode="K" horiz-adv-x="573" d="M53 52h96v239q3 4 13 17t16 21l24 30l220 -307h116q-85 119 -122 172q-54 76 -152 214l245 315h-116q-187 -236 -202 -255q-28 -36 -42 -53v308h-96v-701z" />
<glyph unicode="L" horiz-adv-x="537" d="M53 52h431v95h-335v606h-96v-701z" />
<glyph unicode="M" horiz-adv-x="733" d="M53 52h96v516l217 -356q42 67 96 156q18 30 60.5 97.5t63.5 102.5v-516h94v701h-91q-15 -25 -85 -140q-129 -210 -137 -223l-222 363h-92v-701z" />
<glyph unicode="N" horiz-adv-x="612" d="M468 52h91v701h-95v-513l-319 513h-92v-701h96v515z" />
<glyph unicode="O" horiz-adv-x="659" d="M328 147q-59 0 -121 65q-57 68 -57 190q0 125 52 190q51 67 126 67q83 0 132 -71q50 -76 50 -186q0 -125 -50 -191q-45 -64 -132 -64zM328 52q117 0 197 97q80 102 80 253q0 159 -80 258q-80 93 -197 93q-58 0 -113 -28t-89 -74q-33 -46 -53 -113.5t-20 -135.5 q0 -145 83 -253q83 -97 192 -97z" />
<glyph unicode="P" d="M149 450v209h98q46 0 75 -26q27 -26 27 -77q0 -55 -27 -81q-26 -25 -70 -25h-103zM247 753h-194v-701h96v304h98q199 0 199 200q0 85 -48 142q-46 55 -151 55z" />
<glyph unicode="Q" horiz-adv-x="665" d="M353 242l65 -63q-33 -32 -90 -32q-62 0 -121 65q-58 62 -58 190q0 125 53 191q50 66 126 66q83 0 131 -71q51 -73 51 -186q0 -89 -28 -142l-57 57zM328 52q92 0 157 57l60 -61l75 76q-23 21 -37 36q-18 16 -25 24q47 82 47 218q0 157 -80 258q-78 93 -197 93 q-58 0 -113 -28t-89 -74q-33 -46 -53 -113.5t-20 -135.5q0 -145 83 -253q83 -97 192 -97z" />
<glyph unicode="R" horiz-adv-x="538" d="M149 450v209h98q48 0 76 -25q26 -26 26 -78q0 -54 -27 -81q-26 -25 -70 -25h-103zM247 753h-194v-701h96v304h107q39 0 80 -153q35 -125 64 -151h101q-57 87 -83 188q-29 112 -64 151q53 33 72.5 68.5t19.5 96.5q0 89 -47 142q-49 55 -152 55z" />
<glyph unicode="S" horiz-adv-x="505" d="M253 52q98 0 149 51.5t51 146.5q0 71 -51 125q-41 45 -154 96q-43 20 -71 48t-28 56q0 39 30 59q36 25 74 25q60 0 113 -58l72 57q-74 95 -185 95q-82 0 -142 -49q-58 -48 -58 -137q0 -58 41 -104q29 -29 109 -67q88 -39 124 -72q30 -28 30 -78q0 -55 -28 -77 q-26 -22 -76 -22q-43 0 -68 17h1q-30 21 -62 78l-75 -63q39 -61 73 -91q42 -36 131 -36z" />
<glyph unicode="T" horiz-adv-x="659" d="M53 659h230v-607h95v607h228v94h-553v-94z" />
<glyph unicode="U" horiz-adv-x="581" d="M53 753v-464q0 -105 68 -170q67 -67 171 -67q99 0 166 67q70 69 70 170v464h-96v-464q0 -68 -38 -105q-39 -37 -102 -37q-70 0 -105 36q-38 40 -38 106v464h-96z" />
<glyph unicode="V" horiz-adv-x="725" d="M319 52h87l276 701h-100q-16 -41 -46.5 -120.5t-39.5 -101.5q-11 -28 -134 -344l-220 566h-99z" />
<glyph unicode="W" horiz-adv-x="1007" d="M301 52h87q14 39 50 142q11 32 33 95t33 95l115 -332h88l255 701h-96q-87 -244 -96 -270q-93 -257 -105 -292l-117 335h-89q-37 -108 -52 -151q-52 -154 -62 -184l-204 562h-97z" />
<glyph unicode="X" horiz-adv-x="568" d="M40 52h100q13 23 39 72.5t36 68.5q46 88 69 131l146 -272h99q-17 31 -61.5 110.5t-66.5 117.5h1q-11 20 -34.5 61t-34.5 61l196 351h-99q-15 -28 -55 -97q-32 -59 -90 -163l-145 260h-100q19 -35 117 -210q54 -96 79 -142z" />
<glyph unicode="Y" horiz-adv-x="567" d="M237 52h94v348l197 353h-100q-37 -68 -85 -154q-20 -36 -60 -106l-145 260h-99q12 -22 39.5 -70.5t35.5 -62.5q23 -41 65.5 -117t57.5 -103v-348z" />
<glyph unicode="Z" horiz-adv-x="581" d="M53 52h475v86h-358l358 536v79h-475v-85h358l-358 -536v-80z" />
<glyph unicode="[" horiz-adv-x="237" d="M54 -149h184v93h-90v774h90v94h-184v-961z" />
<glyph unicode="\" horiz-adv-x="237" d="M175 34h80l-182 780h-78z" />
<glyph unicode="]" horiz-adv-x="237" d="M198 -149v961h-184v-94h91v-774h-91v-93h184z" />
<glyph unicode="^" horiz-adv-x="388" d="M107 395l96 279l95 -279h95l-154 419h-73l-151 -419h92z" />
<glyph unicode="_" horiz-adv-x="456" d="M-12 -4v-69h499v69h-499z" />
<glyph unicode="`" horiz-adv-x="281" d="M213 656l-65 159h-120l104 -159h81z" />
<glyph unicode="a" horiz-adv-x="426" d="M298 257v-63q0 -28 -24 -38h1q-31 -9 -63 -9q-85 0 -85 47q0 22 19 35q21 13 69 13q47 0 83 15zM23 409l101 -33q14 38 35 45q20 10 53 10q50 0 67 -15q19 -19 19 -35q0 -19 -17 -31q-18 -15 -69 -15q-113 0 -147 -43h1q-34 -41 -34 -98q0 -60 49 -103q47 -39 131 -39 q44 0 86 10v-10h95v307q0 57 -38 115q-38 52 -143 52q-60 0 -109 -28v1q-33 -18 -80 -90z" />
<glyph unicode="b" horiz-adv-x="481" d="M249 431q42 0 76 -32l-1 1q30 -33 30 -111q0 -72 -31 -112q-27 -30 -74 -30q-51 0 -76 30q-27 31 -27 112t27 111v-1q29 32 76 32zM49 52h97v31q45 -31 103 -31q89 0 144 61q55 60 55 176q0 119 -56 177q-60 60 -143 60q-59 0 -103 -32v259h-97v-701z" />
<glyph unicode="c" horiz-adv-x="439" d="M327 385l94 17q-80 124 -189 124q-84 0 -144 -60q-56 -57 -56 -177q0 -119 57 -177q59 -60 143 -60q108 0 188 119l-93 30q-39 -54 -95 -54q-52 0 -77 30q-28 37 -28 112q0 82 28 111q26 31 77 31q55 0 95 -46z" />
<glyph unicode="d" horiz-adv-x="481" d="M233 431q47 0 76 -31q27 -31 27 -111t-28 -112q-24 -30 -75 -30q-54 0 -76 29q-29 38 -29 113q0 78 28 111q25 31 77 31zM336 52h95v701h-95v-258q-43 31 -103 31q-83 0 -143 -60q-58 -59 -58 -177q0 -122 58 -178q59 -59 143 -59q60 0 103 31v-31z" />
<glyph unicode="e" horiz-adv-x="465" d="M332 358h-199q5 31 25 49q24 24 75 24q46 0 74 -25q19 -16 25 -48zM417 166l-89 36q-39 -55 -95 -55q-94 0 -104 117h302q0 149 -55 202q-60 60 -143 60q-84 0 -144 -60q-57 -57 -57 -177q0 -122 58 -178q59 -59 143 -59q106 0 184 114z" />
<glyph unicode="f" horiz-adv-x="352" d="M111 52h93v379h75v95h-75v66q0 37 10.5 52t33.5 15q21 0 70 -15v90q-35 19 -70 19q-66 0 -102 -40q-35 -38 -35 -121v-66h-79v-95h79v-379z" />
<glyph unicode="g" horiz-adv-x="481" d="M233 431q47 0 76 -31q27 -31 27 -111t-28 -112q-24 -30 -75 -30q-54 0 -76 29q-29 38 -29 113q0 78 28 111q25 31 77 31zM134 -73v-89q5 0 25 -0.5t25 -0.5q247 0 247 180v509h-95v-31q-43 31 -103 31q-83 0 -143 -60q-58 -59 -58 -177q0 -122 58 -178q59 -59 143 -59 q60 0 103 31v-68q0 -51 -53 -69.5t-149 -18.5z" />
<glyph unicode="h" horiz-adv-x="481" d="M49 52h97v237q0 81 27 111v-1q29 32 76 32q42 0 76 -32l-1 1q30 -33 30 -111v-237h94v237q0 119 -56 177q-60 60 -143 60q-59 0 -103 -32v259h-97v-701z" />
<glyph unicode="i" horiz-adv-x="245" d="M122 677q-22 0 -34 -13t-12 -34q0 -47 46 -47t46 47q0 20 -12 33.5t-34 13.5zM76 52h92v474h-92v-474z" />
<glyph unicode="j" horiz-adv-x="245" d="M122 677q-22 0 -34 -13t-12 -34q0 -47 46 -47t46 47q0 20 -12 33.5t-34 13.5zM76 -176h92v702h-92v-702z" />
<glyph unicode="k" horiz-adv-x="481" d="M49 52h97v197q11 11 45 43q7 6 21 20l142 -260h108q-31 54 -132 232q-42 72 -52 90l146 152h-130q-13 -13 -45 -47t-48 -50q-1 -1 -55 -58v382h-97v-701z" />
<glyph unicode="l" horiz-adv-x="245" d="M76 52h92v701h-92v-701z" />
<glyph unicode="m" horiz-adv-x="774" d="M39 52h94v237q0 77 29 111q35 31 76 31q50 0 76 -31q30 -33 30 -111v-237h94v237q0 80 28 111q33 31 76 31q45 0 78 -31q26 -29 26 -111v-237h94v237q0 118 -56 177q-58 60 -142 60q-91 0 -152 -72q-62 72 -152 72q-55 0 -105 -32v32h-94v-474z" />
<glyph unicode="n" horiz-adv-x="472" d="M39 52h95v237q0 80 28 111q26 31 76 31q47 0 77 -32v1q29 -32 29 -111v-237h95v237q0 117 -58 177t-143 60q-58 0 -104 -32v32h-95v-474z" />
<glyph unicode="o" horiz-adv-x="465" d="M233 431q47 0 76 -31q27 -31 27 -111t-28 -112q-24 -30 -75 -30q-54 0 -76 29q-29 38 -29 113q0 78 28 111q25 31 77 31zM32 289q0 -122 58 -178q59 -59 143 -59q87 0 144 60q54 56 54 177q0 123 -55 177q-58 60 -143 60q-83 0 -143 -60q-58 -59 -58 -177z" />
<glyph unicode="p" horiz-adv-x="481" d="M249 431q42 0 76 -32l-1 1q30 -33 30 -111q0 -72 -31 -112q-27 -30 -74 -30q-51 0 -76 30q-27 31 -27 112t27 111v-1q29 32 76 32zM49 -176h97v259q45 -31 103 -31q89 0 144 61q55 60 55 176q0 119 -56 177q-60 60 -143 60q-59 0 -103 -32v32h-97v-702z" />
<glyph unicode="q" horiz-adv-x="481" d="M233 431q47 0 76 -31q27 -31 27 -111t-28 -112q-24 -30 -75 -30q-54 0 -76 29q-29 38 -29 113q0 78 28 111q25 31 77 31zM336 -176h95v702h-95v-31q-43 31 -103 31q-83 0 -143 -60q-58 -59 -58 -177q0 -122 58 -178q59 -59 143 -59q60 0 103 31v-259z" />
<glyph unicode="r" horiz-adv-x="418" d="M39 52h94v237q0 80 28 111q31 31 76 31q50 0 99 -47l56 72q-63 70 -155 70q-62 0 -104 -31v31h-94v-474z" />
<glyph unicode="s" horiz-adv-x="388" d="M278 391l81 46q-57 89 -166 89q-87 0 -125 -42q-36 -39 -36 -102q0 -33 35.5 -67.5t94.5 -60.5q98 -43 98 -61q0 -25 -16 -35.5t-51 -10.5q-56 0 -74 48l-89 -28q52 -115 163 -115q88 0 125 40q36 42 36 101q0 34 -35.5 69t-92.5 61h1q-99 47 -99 59q0 24 12 35 q12 14 53 14q54 0 85 -40z" />
<glyph unicode="t" horiz-adv-x="352" d="M204 677h-93v-151h-79v-95h79v-218q0 -86 35 -124q36 -37 102 -37q37 0 70 20v88q-45 -13 -70 -13q-24 0 -34 12q-10 11 -10 54v218h114v95h-114v151z" />
<glyph unicode="u" horiz-adv-x="472" d="M433 526h-95v-237q0 -77 -29 -112q-29 -30 -76 -30q-51 0 -75 29q-30 39 -30 113v237h-96v-237q0 -122 58 -179q63 -58 143 -58q59 0 105 32v-32h95v474z" />
<glyph unicode="v" horiz-adv-x="527" d="M22 526l199 -474h84l199 474h-100q-45 -109 -137 -339q-1 -1 -2 -4t-1 -4l-141 347h-101z" />
<glyph unicode="w" horiz-adv-x="793" d="M24 526l167 -474h91q7 20 26.5 78.5t29.5 87.5q10 28 29 84.5t29 84.5l115 -335h90l166 474h-95q-56 -165 -116 -337l-116 337h-88q-43 -123 -57 -163q-40 -116 -59 -174l-116 337h-96z" />
<glyph unicode="x" horiz-adv-x="443" d="M15 526l155 -238l-156 -236h99q3 4 27 40t36 53q1 1 47 69l107 -162h99q-6 9 -87 129q-50 74 -72 108l159 237h-100q-24 -34 -51 -75q-25 -40 -56 -86l-109 161h-98z" />
<glyph unicode="y" horiz-adv-x="532" d="M27 526l194 -463q-3 -5 -7 -13.5t-6 -13.5q-5 -9 -13 -26t-10 -21q-41 -80 -67 -80h-86v-85h86q42 0 84 40.5t75 117.5l234 544h-95q-37 -84 -53 -126q-15 -37 -46 -112t-47 -112l-146 350h-97z" />
<glyph unicode="z" horiz-adv-x="466" d="M32 427h274l-274 -289v-86h401v91h-274l274 288v87h-401v-91z" />
<glyph unicode="{" horiz-adv-x="282" d="M20 368v-98q34 -5 52 -20q16 -14 24 -45v1q9 -52 9 -126q0 -96 7 -141q6 -43 25 -70h-1q10 -16 39 -33q30 -14 69 -14h33v98h-22q-28 0 -42 9q-14 14 -17 33q-5 18 -5 129q0 110 -22 160q-18 39 -55 64q29 22 44 45q21 35 29 82q4 23 4 176q0 59 15 77q13 18 49 18h22v97 h-33q-79 0 -110 -48q-20 -35 -25 -85q-4 -44 -4 -123q0 -85 -9 -126q-6 -24 -27 -41t-49 -19z" />
<glyph unicode="|" horiz-adv-x="89" d="M4 -218h81v1032h-81v-1032z" />
<glyph unicode="}" horiz-adv-x="282" d="M273 269v98q-41 5 -51 15q-17 13 -27 47q-8 34 -8 125q0 88 -6 138q-3 34 -26 71q-14 24 -37 35q-20 12 -70 12h-34v-97h23q28 0 43 -11q10 -6 15 -30q4 -17 4 -129q0 -103 21 -157q18 -37 59 -68q-61 -38 -74 -125q-6 -35 -6 -177q0 -67 -11 -79q-17 -17 -51 -17h-23 v-98h34q82 0 109 51v-1q20 37 25 85q5 55 5 123q0 92 8 124q18 59 78 65z" />
<glyph unicode="~" horiz-adv-x="478" d="M29 452v-127q60 60 72 66q32 14 44 14q30 0 85 -29l-1 1l11 -6q6 -3 12 -7q36 -18 45 -21q22 -6 50 -6q65 0 124 62v126q-49 -44 -74 -60q-21 -13 -41 -13q-27 0 -67 23q-22 11 -81 34q-30 10 -55 10q-71 0 -124 -67z" />
<glyph unicode="&#xa4;" horiz-adv-x="473" d="M147 361q0 35 28.5 59.5t69.5 24.5q40 0 69 -24.5t29 -59.5q0 -34 -29.5 -59t-68.5 -25q-40 0 -69 24.5t-29 59.5zM20 501l62 -53q-24 -41 -24 -87q0 -42 24 -88l-62 -55l67 -61q20 17 59 54q57 -27 99 -27q47 0 99 27l59 -55l68 62q-35 33 -60 55q23 43 23 88 q0 44 -23 87l59 54l-66 65q-10 -9 -60 -56q-51 27 -99 27q-45 0 -99 -27l-59 57z" />
<glyph unicode="&#xa6;" horiz-adv-x="220" d="M158 255h-83v-431h83v431zM158 784h-83v-434h83v434z" />
<glyph unicode="&#xa7;" horiz-adv-x="542" d="M361 244h-1q-5 3 -8 5q-13 8 -45 27.5t-51 30.5v-1q-73 43 -96.5 64t-23.5 45q0 32 64 70q29 -21 94 -57q87 -51 105 -73v1q25 -28 25 -45q0 -33 -63 -67zM170 118l-105 -13q46 -181 225 -181q91 0 145.5 44t54.5 112q0 59 -66 116q46 23 60 37q39 37 39 94q0 66 -70 124 h1q-26 22 -106 63q-110 58 -146 94q-14 19 -14 34q0 22 26.5 38.5t65.5 16.5t62 -21t34 -76l108 14q-36 175 -213 175q-82 0 -133 -45t-51 -106q0 -52 51 -104q-54 -24 -76 -55t-22 -74q0 -33 19.5 -68.5t47.5 -59.5v1q21 -17 103 -64q131 -72 161 -105q14 -18 14 -31 q0 -27 -26.5 -45.5t-68.5 -18.5q-91 0 -120 104z" />
<glyph unicode="&#xa9;" horiz-adv-x="798" d="M627 345l-79 13q-45 -91 -132 -91q-56 0 -91.5 36.5t-35.5 103.5t37.5 105t95.5 38q81 0 120 -72l84 11q-74 139 -205 139q-98 0 -158.5 -58t-60.5 -162q0 -102 60 -161.5t159 -59.5q66 0 122.5 41t83.5 117zM421 702q80 0 162 -37q74 -33 122 -109q47 -73 47 -147 q0 -72 -47 -146q-42 -69 -118 -109q-77 -39 -166 -39q-94 0 -165 39q-75 39 -122 110q-45 74 -45 145q0 75 45 147q48 71 123 109q72 37 164 37zM421 788q-106 0 -202 -48q-99 -50 -155 -141q-56 -95 -56 -190t56 -189q62 -94 151 -140q98 -49 206 -49q103 0 202 49 q94 43 153 140q54 85 54 189t-54 191q-62 96 -154 141q-103 47 -201 47z" />
<glyph unicode="&#xab;" horiz-adv-x="488" d="M169 265l123 194h-90l-151 -194l150 -195h92q-83 132 -124 195zM337 265l124 194h-92l-149 -195l148 -194h93q-83 132 -124 195z" />
<glyph unicode="&#xac;" horiz-adv-x="633" d="M599 188v318h-534v-105h426v-213h108z" />
<glyph unicode="&#xad;" horiz-adv-x="360" d="M9 239h360v111h-360v-111z" />
<glyph unicode="&#xae;" horiz-adv-x="798" d="M320 442v97h73q102 0 102 -48q0 -49 -98 -49h-77zM235 196h85v169h36q32 0 51 -12q33 -20 112 -157h116q-46 56 -74 96q-42 63 -74 88q47 14 73 46t26 72q0 33 -25.5 64.5t-57.5 41.5q-40 10 -110 10h-158v-418zM421 706q83 0 162 -39q73 -36 123 -110q46 -72 46 -147 q0 -70 -46 -144q-49 -75 -119 -111q-75 -38 -166 -38q-97 0 -165 38q-76 41 -122 111h1q-46 73 -46 144q0 76 45 147q56 81 123 110q82 39 164 39zM421 791q-98 0 -202 -49q-100 -50 -155 -140q-56 -94 -56 -192q0 -99 57 -188q64 -97 150 -140q97 -48 206 -48q105 0 202 48 q94 46 153 141q54 85 54 187q0 105 -54 192q-61 96 -154 140q-104 49 -201 49z" />
<glyph unicode="&#xaf;" horiz-adv-x="598" d="M-13 699h653v89h-653v-89z" />
<glyph unicode="&#xb0;" horiz-adv-x="434" d="M140 638q0 28 25 48.5t59 20.5t59.5 -20.5t25.5 -48.5q0 -32 -25 -52t-60 -20t-59.5 20.5t-24.5 51.5zM67 638q0 -63 47.5 -106t109.5 -43q65 0 111.5 43t46.5 106q0 58 -47 101.5t-111 43.5q-62 0 -109.5 -43.5t-47.5 -101.5z" />
<glyph unicode="&#xb1;" horiz-adv-x="595" d="M578 70v105h-533v-105h533zM259 196h105v197h214v104h-214v195h-105v-195h-214v-104h214v-197z" />
<glyph unicode="&#xb4;" horiz-adv-x="360" d="M110 625h98l139 161h-151z" />
<glyph unicode="&#xb6;" horiz-adv-x="583" d="M221 -147h102v828h106v-828h104v828h76v106h-343q-129 0 -195 -56.5t-66 -158.5q0 -83 57.5 -138.5t158.5 -70.5v-510z" />
<glyph unicode="&#xb7;" horiz-adv-x="338" d="M113 225h125v124h-125v-124z" />
<glyph unicode="&#xba;" horiz-adv-x="395" d="M208 696q40 0 64.5 -25.5t24.5 -77.5q0 -55 -24.5 -82t-64.5 -27q-43 0 -67.5 27.5t-24.5 78.5q0 106 92 106zM208 786q-84 0 -134.5 -53t-50.5 -144q0 -89 51.5 -141t133.5 -52q78 0 130 53t52 141q0 90 -50 143t-132 53z" />
<glyph unicode="&#xbb;" horiz-adv-x="488" d="M338 264l-122 -195h91l147 195l-147 194h-91q71 -111 122 -194zM170 264l-123 -195h93l148 194l-148 195h-93q20 -31 123 -194z" />
<glyph unicode="&#x2da;" horiz-adv-x="376" d="M199 712q13 0 31 -14.5t18 -25.5t-18 -26.5t-31 -14.5q-13 -1 -31.5 15.5t-19.5 27.5q1 10 19.5 24t31.5 14zM80 673q0 -49 33 -83t86 -34q48 0 82.5 34t34.5 82q0 46 -35.5 80t-82.5 34q-49 0 -83.5 -34t-34.5 -79z" />
<glyph unicode="&#x2dc;" horiz-adv-x="360" d="M-5 649h88q11 46 40 46q14 0 50 -17h-1q63 -28 92 -28q44 0 74 35t40 101h-81q-6 -25 -14.5 -34t-21.5 -9q-20 0 -51 14q-14 5 -18 7q-58 21 -73 21q-46 0 -78 -29q-26 -23 -46 -107z" />
<glyph unicode="&#x10d0;" horiz-adv-x="510" d="M466 271v54q0 40 -9.5 74t-30.5 66t-36.5 50t-44.5 50v-1q-31 34 -43.5 48.5t-27 43t-14.5 54.5v79h-108v-79q0 -44 17 -84t35.5 -63t53.5 -59q32 -34 47.5 -53t31.5 -54t16 -72v-51q0 -67 -23.5 -96t-74.5 -29q-53 0 -75.5 28t-22.5 85v33q0 33 37 104l-86 43 q-64 -91 -64 -147v-31q0 -94 55.5 -156.5t155.5 -62.5q211 0 211 226z" />
<glyph unicode="&#x10d1;" horiz-adv-x="510" d="M157 264v84q0 53 24 86t74 33q46 0 72 -36t26 -80v-92q0 -43 -24.5 -76.5t-73.5 -33.5q-48 0 -73 33.5t-25 81.5zM216 789h-113q0 -33 7.5 -57.5t24 -40.5t28 -24t33.5 -19q32 -17 34 -22q0 -28 -13 -61q-88 -17 -130.5 -77t-42.5 -134v-100q0 -80 57 -144.5t154 -64.5 q95 0 153 67.5t58 140.5l-1 101q0 60 -36 119t-100 85q14 31 14 71q0 22 -12.5 40t-26 26.5t-36.5 20.5q-16 8 -25.5 14.5t-18 22t-8.5 36.5z" />
<glyph unicode="&#x10d2;" horiz-adv-x="570" d="M411 333v-56q0 -59 -32 -94t-94 -35q-61 0 -94.5 39.5t-33.5 89.5v43q0 62 31.5 98t85.5 36h31q49 0 77.5 -38.5t28.5 -82.5zM524 269l1 63q1 74 -39 128.5t-96 81.5l36 78q0 80 -42 124.5t-124 44.5q-68 0 -120 -41t-52 -101v-44h107v44q0 37 65 37q22 0 39 -17.5 t20 -37.5q-6 -13 -18 -35.5t-18 -35.5q-116 -9 -177.5 -76t-61.5 -159v-53q0 -47 26.5 -97.5t83 -89t128.5 -38.5q60 0 108.5 21t76 55t42.5 72t15 76z" />
<glyph unicode="&#x10d3;" horiz-adv-x="745" d="M587 548v-75q0 -21 -1 -36.5t-6 -36t-13 -33.5t-24.5 -22.5t-38.5 -9.5q-43 0 -63.5 33.5t-20.5 104.5v75q0 72 17 104t67 32q23 0 39 -8.5t24.5 -20.5t13 -32t5.5 -35.5t1 -39.5zM561 45v114h-107q-141 0 -219 86t-78 226v52q0 161 75 161t75 -138v-71q0 -109 51 -176.5 t146 -67.5q97 0 147 71.5t50 167.5v78q0 46 -9.5 86t-31 76.5t-61.5 57.5t-95 21q-99 0 -141 -73q-22 41 -51.5 57t-79.5 16q-188 0 -188 -266v-55q0 -81 25 -155.5t73.5 -135t129 -96.5t182.5 -36h107z" />
<glyph unicode="&#x10d4;" horiz-adv-x="529" d="M465 226v388q0 83 -56 129t-143 46t-139 -48.5t-52 -127.5q0 -31 6 -46t24 -42l88 32q-9 24 -9 56q0 33 24 52t63 19q37 0 59.5 -19.5t22.5 -50.5v-385q0 -37 -27 -58.5t-71 -21.5q-98 0 -98 86q0 50 5 76t25 50l-85 34q-34 -36 -46 -68t-12 -91q0 -82 59.5 -136.5 t151.5 -54.5q90 0 150 45.5t60 135.5z" />
<glyph unicode="&#x10d5;" horiz-adv-x="519" d="M465 230v74q0 29 -2 46t-17 44.5t-44 48.5q28 23 42 54t15.5 47t1.5 42v30q0 71 -52.5 122t-148.5 51q-83 0 -140.5 -51t-57.5 -111v-22q0 -28 9 -46.5t38 -55.5l83 45q-12 18 -14.5 28.5t-2.5 32.5v14q0 21 24 41t61 20q43 0 65.5 -21.5t22.5 -50.5v-21q0 -96 -42 -96 h-65v-105h65q24 0 35.5 -27.5t11.5 -58.5v-74q0 -38 -25 -59.5t-73 -21.5t-73 23.5t-25 59.5v27q0 47 39 90l-92 42q-60 -52 -60 -128v-36q0 -71 56.5 -126.5t154.5 -55.5q99 0 154.5 54t55.5 131z" />
<glyph unicode="&#x10d6;" horiz-adv-x="578" d="M292 641v-36q0 -25 -21 -38.5t-47 -13.5q-35 0 -53.5 14.5t-18.5 37.5v35q0 44 70 44q27 0 48.5 -11.5t21.5 -31.5zM208 272v54q0 59 29 86.5t77 27.5t77 -30.5t29 -91.5v-41q0 -61 -29.5 -94.5t-76.5 -33.5t-76.5 31.5t-29.5 91.5zM400 620v23q0 146 -178 146 q-79 0 -128.5 -39t-49.5 -107v-22q0 -117 102 -151q-51 -51 -51 -137v-71q0 -105 61 -161t158 -56q98 0 159 56t61 161v74q0 73 -43 130t-121 73q30 39 30 81z" />
<glyph unicode="&#x10d7;" horiz-adv-x="801" d="M357 587v-269q0 -169 -93 -169q-53 0 -73 45.5t-20 145.5v161q0 183 93 183q48 0 70.5 -28.5t22.5 -68.5zM743 365v141q0 44 -3.5 79.5t-15 75.5t-32 66.5t-56.5 44t-86 17.5q-52 0 -82 -12.5t-53 -54.5q-48 66 -151 66q-205 -6 -205 -269v-186q0 -288 205 -288 q73 0 121.5 42.5t67 102t18.5 131.5v266q0 23 1.5 35.5t8.5 29t24 24.5t45 8q27 0 44 -16t24 -48t9 -59.5t2 -70.5v-131q0 -210 -103 -210v-104q50 0 89 19.5t62.5 51t38.5 74.5t21 85.5t6 89.5z" />
<glyph unicode="&#x10d8;" horiz-adv-x="540" d="M480 344l1 166q0 61 -8.5 107t-30 87t-65 63t-107.5 22q-62 0 -106 -25t-65.5 -69t-30.5 -89.5t-9 -100.5v-164q0 -43 2.5 -75.5t11.5 -73.5t25.5 -69t47.5 -51t74 -31l1 108q-28 0 -39 48t-11 144v166q0 90 21.5 133.5t80.5 43.5q53 0 73.5 -43t20.5 -131v-169 q0 -192 -68 -192l11 -109q168 38 170 304z" />
<glyph unicode="&#x10d9;" horiz-adv-x="504" d="M456 252v46q0 65 -16 106.5t-62 66.5q60 41 60 125v20q0 71 -65.5 122t-133.5 51v-105q31 0 58.5 -21.5t27.5 -46.5v-33q0 -29 -18 -45.5t-45 -16.5h-80v-104h85q33 0 54.5 -36t21.5 -83v-46q0 -103 -98 -103q-46 0 -72 26t-26 60v21q0 48 27 70l-77 60q-63 -52 -63 -122 v-39q0 -67 60 -123.5t151 -56.5q97 0 154 59.5t57 147.5z" />
<glyph unicode="&#x10da;" horiz-adv-x="973" d="M929 504v66q0 100 -53.5 157.5t-135.5 57.5q-75 0 -131 -79q-49 83 -123 83q-76 0 -120 -84q-52 80 -134 80q-94 0 -141 -64t-47 -169v-65q1 -65 25.5 -127.5t73 -118t116 -97t161.5 -65.5t203 -24h87v113h-89q-194 0 -329 89t-134 230l-1 63q0 58 18.5 94t56.5 36 q26 0 42.5 -7.5t23.5 -23.5t9 -30.5t2 -37.5v-140h109v140q0 44 16 73.5t52 29.5q68 0 68 -106v-137h108v137q0 48 17 75t62 27q32 0 52.5 -30.5t20.5 -84.5v-56q0 -47 -36.5 -113t-92.5 -107l76 -69q67 38 117.5 128t50.5 156z" />
<glyph unicode="&#x10db;" horiz-adv-x="525" d="M353 362v-98q0 -56 -24.5 -86t-69.5 -30q-47 0 -74.5 31.5t-27.5 84.5v96q0 46 26.5 81.5t72.5 35.5q44 0 70.5 -28t26.5 -87zM465 253l1 375q0 71 -60.5 116t-142.5 45q-77 0 -138 -43.5t-61 -99.5v-38h114v38q0 16 22 27t62 11q37 0 66 -15t29 -41v-79q-40 31 -99 31 q-98 0 -156 -68t-58 -152v-96q0 -96 56.5 -157.5t157.5 -61.5q93 0 150 56.5t57 151.5z" />
<glyph unicode="&#x10dc;" horiz-adv-x="524" d="M367 366v-103q0 -114 -98 -114q-48 0 -73 30.5t-25 77.5v108q0 39 9.5 63.5t27.5 34t30.5 12t31.5 2.5q46 0 71.5 -31t25.5 -80zM480 256v113q0 87 -57 149t-154 62q-59 0 -104 -36v87q0 21 10 33.5t31 11.5q18 0 56 -8q44 -10 70 -10q60 0 135 45v99q-95 -43 -130 -43 q-16 0 -62 10h1q-62 12 -83 12q-59 0 -96.5 -37.5t-37.5 -109.5v-377q0 -97 58.5 -154.5t152.5 -57.5q100 0 155 56.5t55 154.5z" />
<glyph unicode="&#x10dd;" horiz-adv-x="801" d="M633 494v-121q0 -91 -31.5 -157.5t-89.5 -66.5v-104q52 0 93 20.5t67 53t43.5 76t24.5 87t7 87.5l1 128q0 60 -8 107t-29 91.5t-63 69t-103 24.5q-88 0 -148 -86q-56 86 -141 86q-51 0 -89 -17.5t-59 -44.5t-34 -69t-16.5 -80.5t-3.5 -88.5v-120q0 -60 11 -113.5t36 -103 t73.5 -78.5t115.5 -29v104q-42 0 -71 34t-40.5 82.5t-11.5 105.5v118q0 64 5.5 103t26 65.5t56.5 26.5q45 0 67 -26t22 -83v-290h113v290q0 109 88 109q24 0 40.5 -10t26 -25t14.5 -42t6 -51t1 -62z" />
<glyph unicode="&#x10de;" horiz-adv-x="509" d="M465 272v59q0 31 -20 69.5t-60 68.5q58 47 58 110v20q0 22 -9 40.5t-21.5 29.5t-35 21t-38.5 15t-43 12q-22 6 -33.5 10t-26.5 12t-22 20.5t-7 29.5h-113q0 -35 10.5 -61.5t24 -42t39.5 -28.5t42.5 -18.5t46.5 -13.5q73 -17 73 -30v-15q0 -59 -47 -59h-64v-104h64 q28 0 49 -26.5t21 -59.5v-53q0 -129 -99 -129q-40 0 -68.5 31t-28.5 71v15q0 48 19 77l-92 41q-40 -43 -40 -108v-39q0 -75 61.5 -133.5t148.5 -58.5q95 0 153 61.5t58 165.5z" />
<glyph unicode="&#x10df;" horiz-adv-x="523" d="M465 236v543l-421 -46v-96q129 -37 130 -99q-3 -29 -29 -35.5t-91 -6.5h-10v-105q69 0 119 14t74.5 37.5t35 46t10.5 46.5q0 89 -45 122q76 8 115 12v-427q0 -37 -27 -65t-68 -28q-43 0 -72 22.5t-29 58.5v24q0 44 16 64l-100 8q-27 -39 -29 -74v-20q0 -90 57.5 -138.5 t156.5 -48.5q93 0 150 49.5t57 141.5z" />
<glyph unicode="&#x10e0;" horiz-adv-x="781" d="M737 288v68q0 116 -57.5 170t-143.5 54q-92 0 -144 -82q-47 82 -149 82l-31 -7q103 111 358 111v105q-526 0 -526 -433v-65q0 -34 15.5 -75t43.5 -80t75 -65t102 -26v104q-52 0 -87.5 45.5t-35.5 90.5v71q0 125 90 125q33 0 59.5 -27.5t26.5 -85.5v-127h114v127 q0 58 27.5 85.5t61.5 27.5q33 0 60.5 -28.5t27.5 -96.5v-69q0 -45 -37 -91.5t-85 -46.5v-105q93 0 164 84.5t71 159.5z" />
<glyph unicode="&#x10e1;" horiz-adv-x="524" d="M480 276v41q0 81 -56 144q-43 51 -43 72q0 13 17 36q1 2 29 35l-117 33q-38 -54 -38 -104q0 -19 8.5 -39.5t17.5 -33.5t27 -36q42 -51 42 -115v-27q0 -61 -25 -97t-73 -36q-98 0 -98 132v508h-112v-508q0 -116 57 -176t153 -60q92 0 151.5 65.5t59.5 165.5z" />
<glyph unicode="&#x10e2;" horiz-adv-x="637" d="M479 447v-134q0 -67 -45.5 -115.5t-114.5 -48.5q-71 0 -116.5 50t-45.5 114v134q0 74 31 119t84 59l-15 -292h120q-2 39 -7 141t-7 152q116 -25 116 -179zM593 313v134q0 105 -64.5 182.5t-155.5 98.5l25 61h-169q8 -16 32 -62q-90 -21 -153.5 -98.5t-63.5 -181.5v-134 q0 -113 84.5 -190.5t190.5 -77.5q105 0 189.5 78t84.5 190z" />
<glyph unicode="&#x10e3;" horiz-adv-x="576" d="M517 264v402q0 51 -50 85.5t-110 34.5q-54 0 -87 -47q-33 47 -90 47q-24 0 -56 -26q-10 -10 -11 -10q-8 0 -36.5 23.5t-52.5 47.5v-130q45 -51 87 -51q26 0 53 31q15 17 21 17q30 0 30 -22v-168h99v168q0 9 10.5 15t28.5 6q23 0 37 -6t14 -15v-398q0 -57 -18.5 -88 t-68.5 -31q-51 0 -79 28.5t-28 74.5v43q0 47 31 75l-87 40q-57 -49 -57 -115v-43q0 -92 59.5 -149.5t160.5 -57.5q96 0 148 56t52 163z" />
<glyph unicode="&#x10e4;" horiz-adv-x="764" d="M334 561v-42q0 -60 -19 -86.5t-70 -26.5q-47 0 -67.5 23.5t-20.5 89.5v42q0 72 20.5 97.5t67.5 25.5q46 0 67.5 -27.5t21.5 -95.5zM709 238v28q0 48 -12.5 84t-53.5 59q77 45 77 153v22q0 205 -198 205q-87 0 -131 -69q-51 69 -146 69q-93 0 -147 -58.5t-54 -169.5v-42 q0 -102 52.5 -160.5t148.5 -58.5q100 0 151.5 60.5t51.5 158.5v48q0 117 74 117q52 0 68 -24t16 -79v-24q0 -39 -17.5 -68t-51.5 -29h-41v-104h41q32 0 45.5 -29t13.5 -65v-24q0 -47 -45.5 -68t-115.5 -21h-13q-25 0 -38 0.5t-35.5 2.5t-35 7t-26 14t-19.5 24t-6 35l-112 22 q-1 -52 15 -90t41 -60.5t64 -36t77.5 -18t87.5 -4.5q124 0 199 49.5t75 143.5z" />
<glyph unicode="&#x10e5;" horiz-adv-x="524" d="M465 226v563h-198v-100h90v-88q-53 51 -120 51q-77 0 -121 -41.5t-44 -107.5q0 -71 56 -102l76 46q-23 24 -23 56q0 47 56 47q44 0 72 -23t36 -48t8 -50v-208q0 -34 -27 -53t-71 -19q-98 0 -98 77q0 28 21 61l-90 40q-44 -38 -44 -79v-18q0 -83 60 -134t151 -51 q93 0 151.5 48t58.5 133z" />
<glyph unicode="&#x10e6;" horiz-adv-x="728" d="M684 457v91q0 130 -42 185.5t-147 55.5q-49 0 -79 -14.5t-53 -57.5q-21 42 -51 57t-80 15q-188 0 -188 -270v-65q0 -107 45 -198.5t137.5 -151t214.5 -59.5h98v117h-98q-128 0 -206 83t-78 209v65q0 89 18 127t58 38q43 0 58.5 -26.5t15.5 -104.5v-155h113v155 q0 78 14.5 104.5t61.5 26.5q43 0 58.5 -28t15.5 -110v-82q0 -104 -89 -156l78 -75q125 85 125 224z" />
<glyph unicode="&#x10e7;" horiz-adv-x="524" d="M465 248v541h-112l-1 -234q0 -6 -4 -17.5t-13.5 -26.5t-29.5 -26t-47 -11q-36 0 -63.5 27t-27.5 60v37q0 31 32.5 74t61.5 58l-77 81q-56 -41 -90.5 -98t-35.5 -118v-23q0 -84 55 -143t145 -59q61 0 95 25v-139q0 -55 -21 -81t-77 -26q-37 0 -67.5 18.5t-30.5 45.5 q0 52 21 70l-89 38q-16 -20 -23 -29t-14.5 -31t-7.5 -48q0 -80 62 -124t149 -44q210 0 210 203z" />
<glyph unicode="&#x10e8;" horiz-adv-x="580" d="M408 337v-73q0 -48 -31 -81.5t-75 -33.5q-47 0 -77 37.5t-30 87.5v50q0 52 31.5 90.5t76.5 37.5q54 0 79.5 -27t25.5 -88zM521 264v343q0 95 -35 138t-119 43q-48 0 -102 -62q-46 62 -112 62q-52 0 -88 -37t-36 -90v-83h101v83q0 10 7 19t22 9q24 0 44.5 -13t20.5 -36 v-35h82v35q0 22 15 35.5t39 13.5q36 0 44.5 -16.5t8.5 -68.5v-77q-47 31 -111 31q-97 0 -158.5 -65.5t-61.5 -159.5v-62q0 -85 66.5 -155.5t153.5 -70.5q89 0 154 61.5t65 157.5z" />
<glyph unicode="&#x10e9;" horiz-adv-x="524" d="M296 597l89 -20q25 47 25 75q0 38 -18 66.5t-47 43t-58 21t-59 6.5q-70 0 -119.5 -40t-49.5 -103v-601h108v296q0 33 28.5 66t73.5 33q30 0 51 -12t30.5 -31.5t13 -37t3.5 -35.5v-54q0 -35 -13 -71.5t-25 -56t-37 -55.5q-3 -3 -39 -51h122q31 37 48.5 61.5t37 73 t19.5 95.5v58q0 44 -10 81t-33 69.5t-66 51t-102 18.5q-58 0 -102 -34v128q0 21 18 38.5t41 17.5q26 0 51.5 -11t25.5 -31q0 -31 -7 -55z" />
<glyph unicode="&#x10ea;" horiz-adv-x="574" d="M530 277v35q0 30 -2 48.5t-17.5 47.5t-45.5 47q23 12 37.5 27t19.5 32t6.5 27.5t1.5 26.5q0 30 -15 55.5t-29.5 37t-43.5 31.5q-20 14 -29.5 22.5t-19.5 28.5t-10 46h-103q0 -47 16.5 -84t32.5 -53t43 -35q44 -32 44 -51q0 -18 -16.5 -38t-45.5 -20h-77v-104h77 q62 0 62 -94v-33q0 -53 -33.5 -90.5t-90.5 -37.5q-58 0 -96.5 51t-38.5 113v174q0 159 48 245l-79 71q-82 -132 -82 -316v-174q0 -118 71.5 -193t176.5 -75q102 0 170 66t68 166z" />
<glyph unicode="&#x10eb;" horiz-adv-x="524" d="M353 360v-98q0 -42 -27 -77.5t-71 -35.5q-98 0 -98 110v101q0 57 25.5 87t72.5 30q44 0 71 -33.5t27 -83.5zM466 259v530h-113v-240q-46 31 -98 31q-105 0 -158 -58t-53 -157v-99q0 -99 53.5 -160t157.5 -61q96 0 153.5 60t57.5 154z" />
<glyph unicode="&#x10ec;" horiz-adv-x="581" d="M171 276v67q0 60 26 84.5t81 24.5q50 0 76 -33q29 -35 29 -98v-50q0 -50 -28 -86t-77 -36t-78 37.5t-29 89.5zM59 605v-336q0 -97 62.5 -160.5t156.5 -63.5q99 0 160 65t61 156v60q0 94 -62 163t-159 69q-61 0 -111 -35v80q0 55 9.5 78t45.5 23q20 0 30.5 -21t10.5 -48 v-34h103v34q0 27 16 48t36 21q16 0 24 -13.5t8 -25.5v-84h101v84q0 52 -36.5 88t-89.5 36q-65 0 -110 -60q-52 60 -106 60q-83 0 -116.5 -44t-33.5 -140z" />
<glyph unicode="&#x10ed;" horiz-adv-x="510" d="M263 523v-11q0 -9 -25.5 -22.5t-43.5 -13.5q-19 0 -32.5 12.5t-13.5 26.5q0 12 14 26.5t32 14.5q13 0 41 -13.5t28 -19.5zM466 379v100q-14 9 -99 41q9 4 32 14.5t39.5 18.5t27.5 16v121q-37 -37 -127 -90q1 8 9.5 25t8.5 24v140h-182v-100h80v-37q0 -7 -0.5 -20 t-0.5 -19q-28 23 -60 23q-57 0 -94.5 -30t-37.5 -91q0 -123 132 -123q21 0 67 32q9 -35 54 -86q38 -46 38 -67v-27q0 -44 -24.5 -69.5t-73.5 -25.5q-47 0 -72.5 29.5t-25.5 72.5q0 26 18 58l-98 28q-18 -16 -25.5 -33.5t-7.5 -49.5q0 -90 57.5 -149.5t153.5 -59.5 q100 0 155.5 53t55.5 146v20q0 25 -12.5 52t-25 42.5t-36.5 43.5q-5 6 -21.5 17t-20.5 17q1 0 16.5 -5.5t20.5 -7.5t19.5 -7.5t22 -10t18.5 -11.5t19 -15z" />
<glyph unicode="&#x10ee;" horiz-adv-x="524" d="M171 259v98q0 120 98 120q47 0 72.5 -31.5t25.5 -91.5v-95q0 -51 -26 -80.5t-72 -29.5t-72 29.5t-26 80.5zM59 789v-545q0 -76 59.5 -137.5t150.5 -61.5q101 0 156 60t55 139v124q0 98 -53 155t-158 57q-53 0 -98 -33v242h-112z" />
<glyph unicode="&#x10ef;" horiz-adv-x="510" d="M44 685v-104h145q12 -45 34.5 -77t58.5 -69q24 -26 35.5 -40.5t23.5 -41t12 -54.5q0 -8 -0.5 -24.5t-0.5 -24.5q-2 -101 -96 -101q-46 0 -72.5 32.5t-26.5 68.5v53q0 53 35 88l-82 35q-66 -58 -66 -123v-56q0 -71 58 -136.5t154 -65.5q99 0 154.5 58.5t55.5 146.5v49 q0 45 -15.5 83t-31 56t-46.5 49q-47 45 -61 72q-6 10 -10 22h145v104h-159v104h-108v-103z" />
<glyph unicode="&#x10f0;" horiz-adv-x="510" d="M466 230q0 33 -20.5 68t-52.5 58q60 47 60 95q0 47 -69 92q54 54 54 94q0 150 -284 150h-47v-103h44q40 0 63 -1t53 -5.5t44.5 -15.5t14.5 -28q0 -16 -8 -35t-26 -19h-93v-85h93q26 0 36.5 -13.5t10.5 -30.5q0 -54 -34 -54h-92v-81h92q25 0 36.5 -27.5t11.5 -69.5 q0 -70 -98 -70q-55 0 -76.5 35.5t-21.5 123.5h-113q0 -136 52.5 -199.5t158.5 -63.5q211 0 211 185z" />
<glyph unicode="&#x10f1;" horiz-adv-x="510" d="M466 231q0 74 -50 116q50 28 50 99q0 66 -48 95q48 34 48 104q0 144 -235 144v-105q122 0 122 -41q0 -26 -17 -40t-44 -14h-61v-104h61q29 0 45 -11.5t16 -26.5q0 -44 -48 -44h-74v-100q8 0 36.5 -0.5t36.5 -0.5q49 -1 49 -71q0 -82 -97 -82q-48 0 -76 30t-28 76v534 h-108v-531q0 -103 56.5 -158t154.5 -55q211 0 211 186z" />
<glyph unicode="&#x10f2;" horiz-adv-x="510" d="M157 349v170q0 26 0.5 41.5t6 42.5t15 42t29.5 27t48 12q23 0 40.5 -6t27.5 -19t16.5 -25t9 -32t3 -31.5t0.5 -32.5v-189q0 -45 -39 -103t-58 -58q-21 0 -60 57.5t-39 103.5zM44 127v-105q59 0 104 16.5t103 50.5q75 -67 215 -67v105q-61 0 -119 8q51 29 85 92.5 t34 121.5v189q0 138 -51 194.5t-159 56.5q-109 0 -160.5 -56t-51.5 -195v-189q0 -55 34.5 -118.5t83.5 -95.5q-35 -8 -118 -8z" />
<glyph unicode="&#x10f3;" horiz-adv-x="510" d="M466 252v46q0 129 -86 177q36 36 61 96t25 107v102h-409v-185h114v81h181q-5 -64 -30 -109.5t-50 -45.5h-110v-104h113q33 0 55.5 -36t22.5 -83v-46q0 -103 -98 -103q-46 0 -72 26t-26 60v21q0 38 45 72l-65 75q-39 -26 -66 -64.5t-27 -74.5v-39q0 -67 59.5 -123.5 t151.5 -56.5q97 0 154 59.5t57 147.5z" />
<glyph unicode="&#x10f4;" horiz-adv-x="510" d="M466 230v27q0 44 -14.5 72t-49.5 48q36 30 50 108.5t14 236.5q-191 -134 -247 -134q-33 0 -47.5 14t-14.5 32q0 13 15.5 24t54 18.5t95.5 7.5v105q-83 0 -142.5 -17.5t-86.5 -44t-38 -49t-11 -41.5q0 -71 48 -107t128 -36q70 0 130 34q-10 -100 -62 -100h-57v-105h57 q35 0 50 -12.5t15 -52.5v-33q0 -76 -97 -76q-43 0 -71 25t-28 68q0 18 37 71l-73 70q-77 -76 -77 -139q0 -84 60.5 -141.5t151.5 -57.5q94 0 152 49t58 136z" />
<glyph unicode="&#x10f5;" horiz-adv-x="564" d="M353 297v-72q0 -78 -97 -78q-43 0 -70.5 20t-27.5 55q0 43 25.5 59t72.5 16h97zM158 602q0 41 27 61t71 20q51 0 74 -25t23 -59v-70h-97q-98 0 -98 73zM466 298l54 4v101q-5 0 -24.5 -0.5t-29.5 -0.5v24h54l1 103h-55v70q0 84 -56 136t-154 52q-99 0 -155.5 -51 t-56.5 -134q0 -79 62.5 -127.5t149.5 -48.5h97v-25q-21 0 -49 0.5t-48 0.5q-101 1 -156.5 -45t-55.5 -132q0 -85 56 -133.5t156 -48.5q99 0 154.5 49t55.5 133v73z" />
<glyph unicode="&#x10f6;" horiz-adv-x="709" d="M552 589v-179q0 -47 -16 -68.5t-55 -21.5q-16 0 -30.5 5t-28 27t-13.5 58v182q0 51 12.5 71.5t59.5 20.5q41 0 56 -22.5t15 -72.5zM228 789q-104 0 -144 -46.5t-40 -150.5v-182q0 -97 59.5 -146.5t158.5 -49.5v101q-105 0 -105 95v185q0 50 12.5 69.5t58.5 19.5 q38 0 55 -23t17 -72l-1 -371q0 -35 -35 -53.5t-88 -18.5v-101q233 0 233 173v10q25 -14 72 -14q77 0 130.5 52t53.5 144v185q0 102 -40.5 148t-143.5 46q-51 0 -78.5 -12.5t-48.5 -41.5q-24 31 -51 42.5t-75 11.5z" />
<glyph unicode="&#x10fb;" horiz-adv-x="377" d="M231 330v-121h122v121h-122zM25 498v-122h121v122h-121zM25 167v-123h121v123h-121z" />
<glyph unicode="&#x2012;" horiz-adv-x="603" d="M634 240v98h-636v-98h636z" />
<glyph unicode="&#x2013;" horiz-adv-x="603" d="M-14 227h636v94h-636v-94z" />
<glyph unicode="&#x2014;" horiz-adv-x="1083" d="M4 229h1109v94h-1109v-94z" />
<glyph unicode="&#x2018;" horiz-adv-x="245" d="M206 751l-49 48q-50 -47 -79 -101t-29 -102q0 -90 73 -90q27 0 47 17.5t20 51.5q0 24 -15 40t-38 19q1 40 70 117z" />
<glyph unicode="&#x2019;" horiz-adv-x="245" d="M39 544l48 -47q50 47 79.5 101t29.5 102q0 90 -73 90q-27 0 -47.5 -17.5t-20.5 -50.5q0 -25 15 -41t38 -19q-1 -39 -69 -118z" />
<glyph unicode="&#x201a;" horiz-adv-x="245" d="M39 -50l48 -48q50 47 79.5 101.5t29.5 101.5q0 90 -73 90q-27 0 -47.5 -17.5t-20.5 -50.5q0 -24 15 -40t38 -20q-2 -40 -69 -117z" />
<glyph unicode="&#x201c;" horiz-adv-x="446" d="M387 782l-43 42q-50 -47 -79 -102.5t-29 -106.5q0 -90 71 -90q26 0 46 17t20 50q0 25 -17 40t-42 17v3q0 49 73 130zM211 782l-43 42q-50 -48 -79 -103.5t-29 -105.5q0 -90 71 -90q26 0 46 17t20 50q0 25 -17 40t-41 17v3q0 50 72 130z" />
<glyph unicode="&#x201d;" horiz-adv-x="447" d="M53 560l43 -42q50 47 79 102.5t29 106.5q0 89 -71 89q-26 0 -46 -17t-20 -49q0 -25 16.5 -40.5t41.5 -17.5v-3q0 -46 -72 -129zM234 560l42 -42q51 48 80 103t29 106q0 89 -72 89q-25 0 -45 -17t-20 -49q0 -25 16.5 -40.5t41.5 -17.5v-3q0 -46 -72 -129z" />
<glyph unicode="&#x201e;" horiz-adv-x="451" d="M53 -80l43 -43q50 47 79 103t29 107q0 89 -71 89q-26 0 -46 -17t-20 -49q0 -25 16.5 -40.5t41.5 -17.5v-3q0 -47 -72 -129zM229 -80l42 -43q51 48 80 103.5t29 106.5q0 89 -71 89q-26 0 -46 -17t-20 -49q0 -25 16.5 -40.5t41.5 -17.5v-3q0 -47 -72 -129z" />
<glyph unicode="&#x2020;" horiz-adv-x="530" d="M312 676h-90v-208l-177 -46v-88q59 16 173 45v-425h91v422l176 -45v87q-26 7 -86 23t-87 23v212z" />
<glyph unicode="&#x2022;" horiz-adv-x="379" d="M58 408q0 -55 42.5 -95.5t99.5 -40.5q59 0 101.5 40.5t42.5 95.5t-43 95t-101 40q-57 0 -99.5 -39.5t-42.5 -95.5z" />
<glyph unicode="&#x2026;" horiz-adv-x="906" d="M162 70h124v123h-124v-123zM648 70h125v123h-125v-123zM404 70h126v123h-126v-123z" />
<glyph unicode="&#x2039;" horiz-adv-x="360" d="M171 302l153 236h-104l-176 -236l177 -233h102q-19 29 -73.5 112t-78.5 121z" />
<glyph unicode="&#x203a;" horiz-adv-x="360" d="M189 305l-153 -236h102l172 238l-172 231h-102q23 -36 78.5 -120.5t74.5 -112.5z" />
<glyph unicode="&#x20ac;" horiz-adv-x="623" d="M-11 481l1 2q0 -1 -0.5 -1t-0.5 -1zM524 387h-352v59h390q0 32 3 42v-1q0 1 2 8.5t4.5 17.5l3.5 14h-389q32 87 103 136.5t165 55.5q69 -2 162 -48q7 35 9 40q8 26 11 65q-83 35 -181 41q-144 -12 -249 -88q-110 -81 -141 -202l-71 -5v-11q-1 -3 -1 -10v-2v-1 q-1 -3 -2 -7.5t-1 -5.5q-4 -8 -4 -39h71v-59h-51q-13 -15 -13 -22l-1 -9q0 -5 -13 -45q6 -1 26 -2t26 -1q30 -2 42 -2q35 -125 139 -203q106 -78 241 -89q78 0 160 28v113q-90 -46 -169 -46q-80 0 -154 41q-72 45 -104 156q341 0 346 22v7l2 6q0 1 0.5 2t0.5 2q-1 0 -1 -1 q0 1 1 2v-1v1q1 2 1 5q1 1 1 2q57 40 36 44q-3 1 -8 1t-18 -5q-18 -6 -23 -6z" />
<glyph unicode="&#x2122;" horiz-adv-x="1083" d="M274 372h87v337h144v83h-374v-83h143v-337zM538 372h81v307l108 -307h70l9 26q12 42 27 80q6 13 20 57q6 20 21 62q2 7 6.5 19.5t6.5 17.5q12 37 14 41v-303h80v420h-117q-24 -85 -57 -176q-2 -7 -5 -15q-9 -19 -31 -90q-1 -4 -2.5 -8.5t-3.5 -10t-3 -8.5l-107 308h-117 v-420z" />
<glyph unicode="&#xe000;" horiz-adv-x="525" d="M0 525h525v-525h-525v525z" />
</font>
</defs>
</svg>
